<?xml version="1.0" standalone="no"?>
<!DOCTYPE svg PUBLIC "-//W3C//DTD SVG 1.1//EN" "http://www.w3.org/Graphics/SVG/1.1/DTD/svg11.dtd">
<svg xmlns="http://www.w3.org/2000/svg">
<metadata>Generated by Fontastic.me</metadata>
<defs>
<font id="untitled-font-2" horiz-adv-x="512">
<font-face font-family="untitled-font-2" units-per-em="512" ascent="480" descent="-32"/>
<missing-glyph horiz-adv-x="512" />

<glyph glyph-name="air-conditioner" unicode="&#97;" d="M141 38c-4 1-22 11-22 29 0 13 4 18 11 27 7 7 13 17 16 31 5 26-15 47-32 52-5 2-11-1-13-6-1-5 1-11 7-13 7-2 23-14 20-30-2-10-7-16-12-24-8-9-15-20-15-38 0-26 24-43 36-47 0 0 1 0 2 0 4 0 8 3 10 7 0 4-3 10-8 12z m86 0c-4 1-23 11-23 29 0 13 5 18 11 27 7 7 14 17 16 31 5 26-15 47-32 52-5 2-10-1-12-6-2-5 1-11 6-13 7-2 23-14 20-30-2-10-6-16-12-24-8-9-15-20-15-38 0-26 24-43 36-47 1 0 2 0 3 0 4 0 7 3 9 7 0 4-3 10-7 12z m85 0c-4 1-23 11-23 29 0 13 5 18 12 27 6 7 13 17 16 31 4 26-15 47-33 52-4 2-10-1-12-6-2-5 1-11 7-13 6-2 23-14 20-30-2-10-7-16-13-24-7-9-15-20-15-38 0-26 25-43 36-47 1 0 2 0 3 0 4 0 8 3 10 7 0 4-3 10-8 12z m85 0c-4 1-22 11-22 29 0 13 4 18 11 27 7 7 13 17 16 31 5 26-15 47-32 52-5 2-11-1-13-6-1-5 1-11 7-13 7-2 23-14 20-30-2-10-7-16-12-24-8-9-15-20-15-38 0-26 24-43 36-47 0 0 1 0 2 0 4 0 8 3 10 7 0 4-3 10-8 12z m68 460l-418 0c-26 0-47-21-47-48l0-170c0-27 21-48 47-48l418 0c26 0 47 21 47 48l0 170c0 27-21 48-47 48z m-418-19l418 0c16 0 28-13 28-29l0-123-474 0 0 123c0 16 12 29 28 29z m418-228l-418 0c-16 0-28 13-28 29l0 28 474 0 0-28c0-16-12-29-28-29z m-29 38l-19 0c-6 0-9-4-9-9 0-6 3-10 9-10l19 0c6 0 10 4 10 10 0 5-4 9-10 9z"/>
<glyph glyph-name="alarm-clock" unicode="&#98;" d="M265 278l0 104c0 5-3 9-9 9-6 0-9-4-9-9l0-104c-22-4-38-23-38-45 0-10 3-19 8-26l-42-42c-4-4-4-10 0-13 2-2 5-3 7-3 2 0 4 1 6 3l42 42c7-5 17-8 26-8 26 0 47 21 47 47 0 22-16 41-38 45z m-9-73c-16 0-28 12-28 28 0 16 12 28 28 28 16 0 28-12 28-28 0-16-12-28-28-28z m223 28c0 123-100 223-223 223-123 0-223-100-223-223 0-61 24-117 64-157l-43-52c-4-4-3-10 1-13 1-1 4-2 6-2 2 0 5 1 7 4l43 51c38-34 89-55 145-55 54 0 102 19 142 51 0 0 0 0 0-1l37-47c2-2 4-4 7-4 2 0 4 1 6 2 3 3 4 10 2 13l-38 47c0 0-1 1-1 1 42 42 68 98 68 162z m-428 0c0 112 92 205 205 205 113 0 205-93 205-205 0-113-92-205-205-205-113 0-205 92-205 205z m205 186c-102 0-186-84-186-186 0-103 84-186 186-186 102 0 186 83 186 186 0 102-84 186-186 186z m0-354c-92 0-168 76-168 168 0 92 76 167 168 167 92 0 168-75 168-167 0-92-76-168-168-168z m209 309c1-2 3-2 5-2 1 0 1 0 2 0 3 1 6 3 6 5 0 1 28 61-27 105-17 14-38 22-59 22-27 0-47-12-48-12-2-1-4-4-4-7 0-3 1-6 4-7z m-73 112c18 0 33-6 47-18 31-24 30-54 26-71l-98 84c6 3 15 5 25 5z m-352-114c1 0 1 0 2 0 2 0 4 1 5 2l131 103c3 1 4 4 4 8 0 3-2 6-5 7-1 1-22 13-52 13-23 0-45-7-64-22-46-34-38-84-27-105 0-3 3-5 6-6z m32 96c16 12 34 19 53 19 11 0 21-2 29-5l-107-85c-5 16-7 47 25 71z"/>
<glyph glyph-name="anchor" unicode="&#99;" d="M477 202c-2 3-6 4-10 3l-83-19c-5-1-9-6-8-11 1-5 7-8 11-7l70 15c-3-20-18-83-89-102-53-14-86-35-104-49l0 257 75 0c5 0 9 3 9 9 0 5-4 9-9 9l-75 0 0 66c32 5 56 32 56 65 0 36-29 65-65 65-36 0-65-29-65-65 0-33 24-60 56-65l0-66-75 0c-5 0-9-4-9-9 0-6 4-9 9-9l75 0 0-258c-18 15-51 36-104 49-72 19-86 82-89 102l71-14c4-1 10 1 11 7 1 5-2 10-7 11l-84 19c-4 1-7 0-10-3-1-3-2-6-1-9l1-5c1-12 12-100 104-125 78-20 110-58 111-59 0 0 0 0 0-1 0 0 0-1 1-1 0 0 1 0 1-1 0 0 1 0 1-1 1 0 2-1 3-1 1 0 3 0 4 1 0 0 1 0 1 1 0 0 1 0 1 1 0 0 1 1 1 1 0 0 1 0 1 1 0 0 31 39 110 59 92 25 103 113 104 125l1 5c2 2 1 6-1 9z m-268 236c0 26 21 46 47 46 26 0 47-20 47-46 0-27-21-47-47-47-26 0-47 20-47 47z"/>
<glyph glyph-name="armchair" unicode="&#100;" d="M511 278c0 39-31 69-69 69-2 0-4 0-6 0l0 84c0 27-21 48-47 48l-265 0c-26 0-48-22-48-48l0-84c-2 0-4 0-7 0-39 0-69-31-69-69 0-23 11-44 28-56l0-113c0-27 21-47 48-47l0-19c0-6 4-10 9-10 6 0 10 4 10 10l0 19c12 0 23 4 31 12 2-2 4-3 7-3l246 0c3 0 5 1 7 3 8-8 19-12 31-12l0-19c0-6 4-10 10-10 5 0 9 4 9 10l0 19c27 0 48 20 48 47l0 114c17 12 27 32 27 55z m-416 153c0 16 13 29 29 29l265 0c16 0 28-12 28-29l0-85c0-1 0-2 1-3-28-10-48-40-48-73l0-19c-8 6-18 10-29 10l-170 0c-11 0-21-4-29-10l0 29c0 29-20 54-47 63z m47-322l0 66c8-5 18-9 29-9l170 0c11 0 21 4 29 9l0-66c0-7 2-13 4-19l-236 0c2 6 4 12 4 19z m0 104c0 16 13 29 29 29l170 0c16 0 29-13 29-29 0-16-13-28-29-28l-170 0c-16 0-29 12-29 28z m-47-132l-19 0c-16 0-29 12-29 28l0 103c7-2 15-3 22-3 6 0 10 3 10 9 0 6-4 10-10 10-27 0-50 22-50 50 0 27 23 50 50 50 30 0 54-22 54-49l0-171c0-15-12-27-28-27z m370 28c0-16-13-28-29-28l-19 0c-16 0-28 12-28 28l0 161c0 32 24 59 53 59 27 0 50-23 50-50 0-28-23-50-50-50-6 0-10-4-10-10 0-6 4-9 10-9 7 0 16 1 23 3z"/>
<glyph glyph-name="atm" unicode="&#101;" d="M457 457l-402 0c-26 0-46-20-46-46l0-128c0-25 20-45 46-45l64 0 0-183c0-6 4-9 9-9l256 0c5 0 9 3 9 9l0 183 64 0c26 0 46 20 46 45l0 128c0 26-20 46-46 46z m-82-339c-18-4-44-17-53-54l-132 0c-9 37-35 50-53 54l0 266 238 0z m-238-19c10-3 27-11 34-35l-34 0z m204-35c7 24 24 32 34 35l0-35z m144 219c0-15-12-27-28-27l-64 0 0 128 28 0c5 0 9-4 9-9l0-55c0-5-4-9-9-9-6 0-10-4-10-9 0-6 4-9 10-9 15 0 27 11 27 27l0 55c0 15-12 27-27 27l-330 0c-15 0-27-12-27-27l0-55c0-16 12-27 27-27 6 0 10 3 10 9 0 5-4 9-10 9-5 0-9 4-9 9l0 55c0 5 4 9 9 9l28 0 0-128-64 0c-16 0-28 12-28 27l0 128c0 16 12 28 28 28l402 0c16 0 28-12 28-28z m-229-109c56 0 101 41 101 91 0 50-45 92-101 92-56 0-101-42-101-92 0-50 45-91 101-91z m0 164c46 0 82-33 82-73 0-40-36-73-82-73-46 0-82 33-82 73 0 40 36 73 82 73z m1-75c0 11 8 19 20 19 11 0 20-10 20-21 0-8-4-12-10-16-4-2-6-7-4-12 1-4 4-5 8-5 1 0 2 0 3 1 14 6 21 18 21 32 0 22-17 39-38 39-21 0-38-17-38-37l0-7-20 0 0 37c0 5-3 9-9 9-5 0-9-4-9-9l0-55 55 0z"/>
<glyph glyph-name="ax" unicode="&#102;" d="M508 394c-1 2-4 4-5 5-23 6-106 25-129 30 0 0 0 1 0 1-1 7-5 14-11 18l-59 46c-4 4-11 6-17 6-8 0-17-4-22-12l-39-50c-6-4-8-11-7-19 0-1 1-3 1-4l-44-55c-2-3-2-8 0-12 0 0 9-13-19-49-19-24-39-48-59-70-22-25-43-49-57-69-32-47-38-87-38-89 0-3 1-7 4-8l64-53c0 0 3-1 5-1 1 0 2 0 2 0 3 1 5 3 6 6 1 3 12 28 12 45-1 53 49 107 80 139 9 9 16 16 20 23l100 128c3-1 6-2 10-2 2 0 4 0 6 1l73-118c1-2 4-3 6-3 1 0 1 0 2 0 1 0 3 1 5 1 3 2 73 53 110 159 1 2 1 4 0 6z m-327-160c-4-5-11-12-19-21-32-34-87-92-85-153 0-7-3-17-5-25l-49 41c2 11 10 42 34 75 13 19 34 41 55 66 21 23 42 47 61 71 26 34 26 55 22 66l37 46 49-38z m120 135l-59 45c-2 2-3 4-4 7 0 3 0 5 2 7l39 50c2 2 4 4 7 4 2 0 4 0 6-2l59-46c2-2 3-4 4-6 0-3 0-5-2-7l-39-50c-2-2-5-4-8-4-2 0-4 1-5 2z m94-119l-67 108c0 0 1 0 1 1l39 51c0 0 1 1 1 1 13-3 49-12 80-18-3-11-16-43-47-75-4-4-4-10 0-14 2-2 4-2 7-2 2 0 4 0 6 2 35 37 50 75 52 84 8-2 15-3 20-5-28-73-74-117-92-133z"/>
<glyph glyph-name="backpack" unicode="&#103;" d="M466 205c0 0-1 0-1 0l0 65c6 7 10 18 10 28l0 93c0 26-21 47-47 47l-94 0c-4 36-36 65-73 65-39 0-69-29-74-65l-94 0c-26 0-46-21-46-47l0-93c0-10 3-20 9-28l0-65c-25-1-47-22-47-47l0-102c0-26 21-47 47-47l18 0c8-5 18-9 28-9l317 0c10 0 19 4 28 9l18 0c27 0 47 21 47 47l0 102c0 26-20 47-46 47z m-10 186l0-93c0-16-12-28-28-28l-46 0 0 149 46 0c16 0 28-12 28-28z m-65-223l-37 0 0 27 37 0z m-223 0l-38 0 0 27 38 0z m-10 251l205 0 0-149-205 0z m103 65c28 0 50-20 55-46l-110 0c4 26 27 46 55 46z m-196-93c0 16 12 28 28 28l47 0 0-149-47 0c-16 0-28 12-28 28z m-37-335l0 102c0 14 13 27 28 28l0-139c0-7 2-13 4-19l-4 0c-16 0-28 12-28 28z m74-37c-15 0-28 12-28 28l0 208c6-3 13-4 19-4l47 0 0-37-10 0c-10 0-18-8-18-19l0-27c0-11 8-19 18-19l10 0 0-19c0-5 3-9 9-9 6 0 9 4 9 9l0 19 10 0c10 0 18 8 18 19l0 27c0 11-8 19-18 19l-10 0 0 37 205 0 0-37-9 0c-10 0-19-8-19-19l0-27c0-11 9-19 19-19l9 0 0-19c0-5 4-9 9-9 6 0 10 4 10 9l0 19 9 0c10 0 19 8 19 19l0 27c0 11-9 19-19 19l-9 0 0 37 46 0c7 0 13 2 19 4l0-208c0-16-12-28-28-28z m391 37c0-16-12-28-28-28l-3 0c3 6 3 12 3 19l0 139c0 0 1 0 1 0 15 0 27-12 27-28z m-186 37l-93 0c-26 0-46-14-46-32l0-24c0-5 3-9 9-9 5 0 9 4 9 9l0 24c0 6 12 13 28 13l93 0c16 0 28-7 28-13l0-24c0-5 4-9 9-9 6 0 10 4 10 9l0 24c0 18-21 32-47 32z"/>
<glyph glyph-name="bag" unicode="&#104;" d="M386 391l-74 0 0 84c0 3-1 6-2 9l2 0c5 0 9 4 9 9 0 6-4 10-9 10l-112 0c-5 0-9-4-9-10 0-5 4-9 9-9l2 0c-1-3-2-6-2-9l0-84-74 0c-26 0-47-21-47-47l0-270c0-26 21-46 47-46l9 0 0-19c0-5 4-9 9-9 6 0 10 4 10 9l0 19 204 0 0-19c0-5 4-9 10-9 5 0 9 4 9 9l0 19 9 0c26 0 47 20 47 46l0 270c0 26-21 47-47 47z m-167 84c0 5 3 9 9 9l56 0c6 0 9-4 9-9l0-84-74 0z m93-428l-112 0 0 148c0 16 12 28 28 28l56 0c16 0 28-12 28-28z m102 27c0-15-12-27-28-27l-56 0 0 148c0 27-20 47-46 47l-56 0c-26 0-46-20-46-47l0-148-56 0c-16 0-28 12-28 27l0 270c0 16 12 28 28 28l260 0c16 0 28-12 28-28z m-139 112l-38 0c-5 0-9-4-9-9 0-6 4-9 9-9l38 0c5 0 9 3 9 9 0 5-4 9-9 9z m111 158l-260 0c-6 0-10-3-10-9 0-5 4-9 10-9l9 0 0-19c0-5 4-9 9-9 6 0 10 4 10 9l0 19 232 0c6 0 10 4 10 9 0 6-4 9-10 9z"/>
<glyph glyph-name="baggage-trolley" unicode="&#105;" d="M98 130l223 0c26 0 47 21 47 47l0 158c0 26-21 47-47 47l-46 0c-2 0-9 4-13 11l-6 7c-8 11-24 19-37 19l-19 0c-13 0-29-8-37-19l-6-7c-4-7-11-11-13-11l-46 0c-26 0-47-21-47-47l0-158c0-26 21-47 47-47z m251 47c0-16-12-28-28-28l-223 0c-16 0-28 12-28 28l0 121 279 0z m-171 212c4 6 15 11 22 11l19 0c7 0 17-5 22-11l6-7-75 0z m-108-54c0 16 12 28 28 28l223 0c16 0 28-12 28-28l0-18-279 0z m65-177c6 0 9 4 9 10l0 111c0 6-3 10-9 10-6 0-9-4-9-10l0-111c0-6 3-10 9-10z m149 0c6 0 9 4 9 10l0 111c0 6-3 10-9 10-6 0-9-4-9-10l0-111c0-6 3-10 9-10z m-196-84c-20 0-37-16-37-37 0-20 17-37 37-37 21 0 38 17 38 37 0 21-17 37-38 37z m0-55c-10 0-18 8-18 18 0 10 8 19 18 19 11 0 19-9 19-19 0-10-8-18-19-18z m270 55c-20 0-37-16-37-37 0-20 17-37 37-37 21 0 38 17 38 37 0 21-17 37-38 37z m0-55c-10 0-18 8-18 18 0 10 8 19 18 19 11 0 19-9 19-19 0-10-8-18-19-18z m140 484l-33 0c-23 0-41-21-41-47l0-326c0-16-13-28-28-28l-382 0c-6 0-9-3-9-9 0-5 3-9 9-9l382 0c26 0 46 20 46 46l0 326c0 16 10 28 23 28l33 0c6 0 9 4 9 9 0 6-3 10-9 10z"/>
<glyph glyph-name="balloon" unicode="&#106;" d="M399 198c29 33 47 77 47 124 0 105-86 190-190 190-104 0-190-85-190-190 0-47 18-91 47-124l84-123c-4-6-5-12-5-20l4-28c3-16 16-27 32-27l56 0c16 0 29 11 32 27l4 28c0 8-1 14-5 20z m-105-113l-76 0c-2 0-3 0-4 0l-49 71c27-15 58-23 91-23 33 0 64 8 91 23l-49-71c-1 0-2 0-4 0z m-29 68l0 339c42-9 76-83 76-170 0-86-34-159-76-169z m-18 339l0-339c-42 9-76 83-76 169 0 87 34 160 76 170z m180-170c0-31-9-61-24-87-1-1-2-2-3-3l-16-22c-19-22-45-39-73-50 30 34 49 93 49 162 0 70-19 128-49 162 67-23 116-87 116-162z m-226 162c-30-34-49-92-49-162 0-69 19-128 49-161-28 10-53 27-73 49l-16 23c-1 1-2 2-3 3-15 25-24 55-24 86 0 75 49 139 116 162z m96-455c-1-5-7-10-13-10l-56 0c-6 0-12 5-13 10l-4 29c0 2 0 4 2 6 1 1 3 1 6 1l76 0c2 0 4-1 6-1 1-2 1-4 1-6z"/>
<glyph glyph-name="bathtub" unicode="&#107;" d="M505 203c-2 6-9 15-31 15l0 228c0 37-33 66-76 66-42 0-76-29-76-66l0-11c-27-6-37-42-38-43-1-3 0-6 2-9 2-2 5-4 8-4l76 0c5 0 9 4 9 10 0 2 0 3-1 4-3 8-12 37-37 42l0 11c0 26 25 47 57 47 32 0 57-21 57-47l0-228-190 0c-19 0-52 6-70 12l-4 2c-21 8-55 15-77 15l-76 0c-23 0-31-11-34-17-5-8-3-19 4-27 7-11 13-19 14-20 0-1 1-3 2-5 2-4 5-12 9-27l12-41c11-37 41-52 66-59-5-5-10-11-14-19-8-12-19-13-31-13-5 0-9-4-9-10 0-5 4-9 9-9 11 0 35 0 47 25 6 13 19 21 23 23 2 0 4 0 6 0l244 0c5-2 16-10 23-22 12-26 36-26 46-26 6 0 10 4 10 9 0 6-4 10-10 10-11 0-23 1-29 13-3 6-7 12-11 15 23 3 44 21 50 44l10 40c5 20 15 36 24 44 7 9 10 19 6 28z m-149 195l-49 0c5 9 13 19 24 19 13 0 21-10 25-19z m129-208c-14-14-24-34-30-53l-9-41c-4-16-21-30-38-30l-266 0c-20 0-67 5-80 49l-12 40c-4 16-7 25-10 30 0 1-1 2-1 2-2 5-13 22-17 26-2 3-3 6-1 8 2 5 7 7 17 7l76 0c20 0 52-6 70-13l5-2c21-7 55-14 76-14l209 0c10 0 13-3 13-4 1-1 0-3-2-5z m-361-77c-14 1-23 20-23 20-1 4-7 6-12 4-5-1-7-7-5-12 1-1 14-30 39-31 0 0 0 0 1 0 5 0 10 4 10 8 0 6-4 11-10 11z m170 200c6 0 9 4 9 9l0 29c0 6-3 9-9 9-6 0-10-3-10-9l0-29c0-5 4-9 10-9z m47 9l0 29c0 6-3 9-9 9-6 0-10-3-10-9l0-29c0-5 4-9 10-9 6 0 9 4 9 9z m38 0l0 29c0 6-4 9-9 9-6 0-10-3-10-9l0-29c0-5 4-9 10-9 5 0 9 4 9 9z"/>
<glyph glyph-name="bed" unicode="&#108;" d="M114 280c31 0 57 25 57 57 0 31-26 56-57 56-32 0-57-25-57-56 0-32 25-57 57-57z m0 95c21 0 38-18 38-38 0-21-17-38-38-38-21 0-38 17-38 38 0 20 17 38 38 38z m389-19c-6 0-10-4-10-10l0-142-19 0 0 83c0 18-13 37-30 45-57 23-113 34-165 34-23 0-45-2-66-7-19-3-33-21-33-41l0-105-10 0c-6 45-51 57-75 57l-76 0 0 171c0 6-4 9-10 9-5 0-9-3-9-9l0-370c0-6 4-9 9-9 6 0 10 3 10 9l0 48 474 0 0-48c0-6 4-9 10-9 5 0 9 3 9 9l0 275c0 6-4 10-9 10z m-304-38c0 10 9 20 18 23 20 4 41 6 62 6 53 0 107-12 158-33 11-4 18-16 18-27 0-27 0-56 0-83 0-11-8-19-19-19-73 0-145 0-218 0-10 0-19 8-19 19 0 38 0 76 0 114z m-180-67l76 0c2 0 49-1 56-38l-132 0z m474-114l-474 0 0 57 162 0c4-16 19-28 36-28l218 0c14 0 26 8 32 19l26 0z"/>
<glyph glyph-name="bed-plus" unicode="&#109;" d="M503 244l-7 37c-1 2-2 5-3 8l0 95c0 9-6 19-14 23-57 29-124 29-181 0-8-3-14-13-14-22l0-95c-1-3-2-6-2-8l-7-38c-6-6-10-13-10-21l0-128c0-13 13-24 29-24 15 0 29 11 33 26l0 1c2 5 9 11 14 11l95 0c6 0 13-6 14-11l0-1c4-15 18-26 34-26 16 0 28 11 28 24l0 128c0 8-4 16-9 21z m-202 35c1 5 6 10 12 10l152 0c5 0 11-5 12-10l5-28-186 0z m135 29l-95 0 0 29c0 5 4 9 10 9l76 0c5 0 9-4 9-9z m-129 84c51 26 112 26 163 0 2-1 4-5 4-7l0-79c-3 1-7 2-9 2l-10 0 0 29c0 16-12 28-28 28l-76 0c-16 0-29-12-29-28l0-29-9 0c-3 0-7-1-10-2l0 79c0 2 2 6 4 7z m186-297c0-2-4-5-9-5-6 0-14 6-15 11l0 1c-3 15-18 26-33 26l-95 0c-15 0-29-11-33-26l0-1c-1-5-8-11-14-11-6 0-10 3-10 5l0 128c0 6 4 9 10 9l190 0c5 0 9-3 9-9z m-370 346c-68 0-123-55-123-123 0-69 55-124 123-124 69 0 124 55 124 124 0 68-55 123-124 123z m0-228c-58 0-104 47-104 105 0 57 46 104 104 104 58 0 105-47 105-104 0-58-47-105-105-105z m57 114l-47 0 0 48c0 5-4 9-10 9-5 0-9-4-9-9l0-48-48 0c-5 0-9-4-9-9 0-6 4-10 9-10l48 0 0-47c0-6 4-10 9-10 6 0 10 4 10 10l0 47 47 0c6 0 10 4 10 10 0 5-4 9-10 9z"/>
<glyph glyph-name="beds" unicode="&#110;" d="M237 248l-7 37c-1 3-1 6-2 9l0 95c0 8-6 19-15 22-57 30-124 30-181 0-7-2-13-12-13-21l0-95c-1-3-3-6-3-9l-7-38c-5-5-9-12-9-20l0-128c0-14 12-24 28-24 16 0 30 11 34 25l0 1c1 6 8 12 14 12l95 0c5 0 13-6 14-12l0-1c4-14 18-25 33-25 16 0 29 10 29 24l0 128c0 8-4 16-10 20z m-202 35c1 6 7 11 12 11l152 0c6 0 11-5 12-11l5-27-186 0z m136 30l-95 0 0 28c0 6 4 10 9 10l76 0c6 0 10-4 10-10z m-129 83c51 27 112 27 163 0 2-1 4-4 4-6l0-79c-3 1-7 2-10 2l-9 0 0 28c0 16-13 29-29 29l-76 0c-16 0-28-13-28-29l0-28-10 0c-2 0-6-1-9-2l0 79c0 2 2 5 4 6z m186-296c0-2-4-5-10-5-6 0-13 6-14 11l0 1c-4 14-18 26-33 26l-95 0c-15 0-30-12-33-26l0-1c-1-5-9-11-15-11-5 0-9 3-9 5l0 128c0 5 4 9 9 9l190 0c6 0 10-4 10-9z m275 148l-7 37c-1 3-2 6-3 9l0 95c0 8-6 19-14 22-57 30-124 30-181 0-8-2-14-12-14-21l0-95c-1-3-2-6-2-9l-7-38c-6-5-10-12-10-20l0-128c0-14 13-24 29-24 15 0 29 11 33 25l0 1c2 6 9 12 14 12l95 0c6 0 13-6 14-12l0-1c4-14 18-25 34-25 16 0 28 10 28 24l0 128c0 8-4 16-9 20z m-202 35c1 6 6 11 12 11l152 0c5 0 11-5 12-11l5-27-186 0z m135 30l-95 0 0 28c0 6 4 10 10 10l76 0c5 0 9-4 9-10z m-129 83c51 27 112 27 163 0 2-1 4-4 4-6l0-79c-3 1-7 2-9 2l-10 0 0 28c0 16-12 29-28 29l-76 0c-16 0-29-13-29-29l0-28-9 0c-3 0-7-1-10-2l0 79c0 2 2 5 4 6z m186-296c0-2-4-5-9-5-6 0-14 6-15 11l0 1c-3 14-18 26-33 26l-95 0c-15 0-29-12-33-26l0-1c-1-5-8-11-14-11-6 0-10 3-10 5l0 128c0 5 4 9 10 9l190 0c5 0 9-4 9-9z"/>
<glyph glyph-name="beer" unicode="&#111;" d="M493 265c0 18-7 34-19 44-22 18-58 17-76 15l0 34c12 11 18 25 18 40 0 32-27 57-60 57-4 0-8 0-11-1-14 34-49 58-89 58-36 0-72-23-83-52-1 0-2 0-3 0-15 14-33 20-54 15-41-9-52-32-55-48l-3 0c-22-1-39-20-39-43 0-18 12-34 28-40l0-297c0-26 21-47 48-47l256 0c26 0 47 21 47 47l0 48c95 6 95 109 95 170z m-455 119c0 13 8 23 21 24l7 0c4 0 7 2 9 4 0 0 0 0 0 1l0 1c3 3 4 5 5 7 2 9 5 27 40 35 15 3 26 0 36-9 3-4 8-6 15-6 7 0 17 4 20 12 6 19 33 40 65 40 35 0 64-22 73-53 1-3 2-5 5-6 2-1 4-2 7-1 5 2 10 3 15 3 22 0 41-17 41-38 0-13-8-25-22-33-3-3-7-4-11-5-1 0-1 0-2 0l-191 0c-6 0-10-3-10-9l0-48c0-10-6-16-16-16-7 0-12 1-12 16l0 29c0 3-2 6-4 7-2 1-4 2-6 2-1 0-2 0-3 0 0 0-3-1-6-1-2 0-5 0-7 2-3 1-3 6-3 9 0 6-3 9-9 9l-32 0c-14 0-25 11-25 24z m341-337c0-16-12-28-28-28l-256 0c-16 0-29 12-29 28l0 294 20 0c1-5 4-10 9-14 5-4 11-7 19-6l0-18c0-30 20-35 31-35 21 0 35 15 35 35l0 38 185 0c2 0 3 0 5 1 4 1 6 2 9 3z m19 68l0 189c17 2 48 3 64-10 7-7 12-16 12-29 0-79-6-146-76-150z m-275 141c-5 0-9-4-9-9l0-152c0-6 4-10 9-10 6 0 10 4 10 10l0 152c0 5-4 9-10 9z m67 0c-6 0-10-4-10-9l0-152c0-6 4-10 10-10 5 0 9 4 9 10l0 152c0 5-4 9-9 9z m66 0c-6 0-9-4-9-9l0-152c0-6 3-10 9-10 6 0 9 4 9 10l0 152c0 5-3 9-9 9z m66 0c-5 0-9-4-9-9l0-152c0-6 4-10 9-10 6 0 10 4 10 10l0 152c0 5-4 9-10 9z"/>
<glyph glyph-name="bell" unicode="&#112;" d="M512 35c-1 17-9 46-38 46l-436 0c-1 0-2 0-3-1-27-9-35-34-35-47 0-6 4-9 9-9l494 0c5 0 9 3 9 9 0 1 0 1 0 2z m-491 8c2 6 7 15 19 19l434 0c11 0 16-11 18-19z m26 57l418 0c9 0 28 0 28 28 0 26-19 35-25 37-18 10-22 39-28 71-10 65-25 154-175 157l0 19 48 0c15 0 28 14 28 29 0 15-11 29-26 33-39 9-80 9-119 0-14-4-25-18-25-33 0-15 12-29 28-29l48 0 0-19c-150-3-165-92-176-157-6-32-9-60-28-71-5-2-24-11-24-37 0-28 19-28 28-28z m143 341c0 6 5 13 11 14 18 4 37 6 55 6 19 0 37-2 55-6 6-1 11-8 11-14 0-5-4-10-9-10l-114 0c-5 0-9 5-9 10z m-140-293c1 0 1 0 2 1 27 15 32 48 38 84 11 66 24 142 166 142 142 0 155-76 166-143 6-36 11-69 38-84 0 0 1-1 2-1 1 0 12-5 12-20 0-9 0-9-9-9l-418 0c-9 0-9 0-9 9 0 15 11 20 12 21z m78 48c1 0 2-1 4-1 4 0 7 2 8 6 4 10 6 23 9 35 6 31 10 64 45 81 5 2 7 7 5 12-2 5-7 7-12 5-44-21-50-62-56-95-2-11-4-23-8-31-3-4 0-10 5-12z"/>
<glyph glyph-name="bike" unicode="&#113;" d="M206 164l22 6c7-12 20-19 35-19 3 0 7 0 10 1 23 5 37 29 30 52-2 11-10 21-20 26l28 118 32-43c-27-23-41-61-31-99 11-45 51-75 97-75 8 0 17 1 24 3 53 13 86 68 72 121-11 45-51 75-96 75-9 0-17-1-25-3-9-2-17-6-26-10l-39 53c-2 3-12 22-7 35 2 6 6 9 12 11 5 1 20 5 27 15 4 6 5 13 3 18-3 12-8 19-15 23-10 7-22 3-34 0-2-1-3-1-5-2l-44-9 5-18 45 11c2 1 5 1 7 2 7 2 15 5 19 2 2-1 5-6 6-11 0-2 0-3-1-4-3-4-12-7-16-8-1 0-1 0-1-1-13-4-20-12-24-23-5-14-2-29 2-38l-176-45-18 15 35 10c5 1 9 6 7 11-1 5-7 9-11 7l-57-14c0 0-17-4-19 4-1 5-7 9-12 7-4-1-8-7-6-11 3-12 12-19 25-20 2 0 3 0 5 0 7 0 11 1 12 1 1 0 1-2 3-2l26-21-8-62c-7 0-15-1-22-3-25-6-47-22-60-45-13-23-17-50-11-76 12-45 52-75 97-75 9 0 17 1 25 3 47 12 77 59 73 107z m184 145c6 2 13 3 20 3 37 0 69-25 77-61 12-42-15-87-57-97-7-2-14-3-20-3-37 0-70 24-78 60-8 31 3 61 25 80l52-69c2-3 4-4 7-4 2 0 4 1 6 2 4 3 5 9 2 13l-51 69c4 3 10 5 17 7z m-269-76c30-5 53-26 63-55l-70-18z m2 19l5 48 101-82c-6-8-9-19-8-30l-19-5c-11 36-42 63-79 69z m145-81c-12-3-25 4-28 17-3 12 5 25 17 28 2 1 4 1 6 1 10 0 20-7 22-18 4-12-3-25-17-28z m26 182l-29-118c0 0-1 0-2 0-4 0-8 0-11-1-4-1-6-2-9-4l-103 84z m-168-277c-7-2-13-3-20-3-37 0-69 25-78 61-5 21-1 42 9 60 11 19 28 32 49 37 5 1 11 2 15 2l-8-85c0-3 1-6 3-9 2-2 4-2 6-2 1 0 2 0 2 0l82 21c4-37-21-73-60-82z m377 33l-95 0c-2 0-4 0-5-1l-46-27-82 0c-60 0-99-30-101-31-3-3-4-9-1-13 1-3 4-4 7-4 2 0 4 1 6 2 0 0 36 27 89 27l85 0c2 0 4 0 5 1l46 27 92 0c5 0 9 4 9 10 0 5-4 9-9 9z"/>
<glyph glyph-name="bonfire" unicode="&#114;" d="M417 117c-2 4-6 7-11 6l-360-104c-5-2-8-7-7-11 1-5 5-8 8-8 1 0 2 0 3 0l361 104c4 2 7 7 6 13z m-316-13l95-27c1 0 2 0 3 0 4 0 8 3 10 6 1 5-2 11-7 12l-95 28c-5 2-10-2-11-6-2-6 1-11 5-13z m366-85l-153 45c-5 1-11-2-12-7-1-5 2-11 7-11l153-46c1 0 2 0 3 0 3 0 7 3 9 7 1 5-2 10-7 12z m-245 97c0 0 0-2 1-2 5 0 9 5 9 11 0 5-3 10-6 11-4 1-24 12-29 38-1 9-4 17-6 21 11-3 22-10 28-15 2-2 6-3 9-2 2 1 5 3 6 6 2 6 2 12 2 20 0 10 0 24 5 35 3 7 8 12 13 16 0-8 1-21 6-34 2-5 5-14 18-22 3-2 6-2 9 0 3 2 7 4 9 5 2 1 5 3 6 4 2-23 5-51-15-67-4-3-4-7-2-11 2-4 7-6 11-5 61 14 131 60 105 196-8 45-19 63-31 82-2 4-4 7-7 10-2 4-6 6-11 4-4-1-7-6-7-10 0 0 3-30-10-62-1 12-2 25-6 44-17 100-83 119-91 121-3 1-7 0-9-2-1-2-3-5-2-8 0-2 1-5 2-8 3-18 11-48-22-99-18-28-26-53-31-71-12 20-29 33-46 34-4 0-8-2-10-5-1-3-1-8 1-11 13-16 7-29-4-52-13-24-29-56-9-98 27-62 88-73 114-74z m-89 164c7 15 16 31 13 48 10-8 20-25 23-47 0-4 3-7 6-8 4-1 8 0 11 3 3 4 4 8 4 17 2 17 4 48 31 89 31 48 30 83 27 103 20-10 53-37 65-99 7-42 6-58 4-71 0-2-1-4-1-6-1-4 2-8 5-9 4-2 9-1 12 2 21 26 29 55 32 76 8-13 13-30 19-58 16-87-6-143-65-166 7 20 5 42 3 59 0 5 0 11 0 15 0 3-2 7-6 8-4 1-9 0-11-3-4-5-8-8-16-12-1-1-3-2-5-2-3 3-4 6-5 9-9 25-4 41-4 41 1 4 0 7-2 10-3 3-7 4-9 3-1 0-28-9-39-34-7-15-7-31-7-43-13 7-32 14-47 12-4 0-7-3-8-6-1-2-1-6 1-9l1-1c5-6 10-13 13-28 2-13 7-23 12-31-24 8-51 23-66 56-15 33-3 58 9 82z"/>
<glyph glyph-name="booking" unicode="&#115;" d="M456 512l-400 0c-31 0-56-21-56-47l0-465 456 0c31 0 56 21 56 47l0 418c0 26-25 47-56 47z m34-465c-2-17-17-29-34-28l-400 0c-17-1-32 11-34 28l0 418c2 17 17 29 34 28l400 0c17 1 32-11 34-28z m-130 143c-15 0-28-13-28-28 0-16 13-29 28-29 16 0 29 13 29 29 0 15-13 28-29 28z m-228 185l73 0c34 0 59-5 74-15 16-10 24-28 23-46 0-13-4-26-11-36-8-10-20-16-32-18l0-1c14-2 27-9 38-19 8-11 13-25 12-39 1-20-8-39-23-51-19-14-42-21-65-19l-89 0z m40-101l39 0c13-1 26 2 37 8 9 6 13 16 12 27 1 10-4 19-13 25-12 6-26 8-40 7l-35 0z m0-32l0-78 43 0c14 0 27 3 38 10 9 7 14 19 13 30 1 11-4 22-13 29-12 7-26 10-40 9z"/>
<glyph glyph-name="boots" unicode="&#116;" d="M512 66c0 84-26 122-92 133l-65 29c-39 16-23 83-23 83l47 190c1 2 0 5-2 8-2 2-4 3-7 3l-67 0c-2 0-5-2-7-4l-16-24-157 0c-4 0-7-3-9-7l-17-54c-1-2-2-4-2-6 0 0 0 0 0-1l-56-175c-29-66-39-142-39-175 0-2 1-3 2-4-1-1-2-3-2-5l0-29c0-16 12-28 28-28l456 0c16 0 28 12 28 28l0 29c0 2-1 4-2 5 1 1 2 2 2 4z m-119 124l-22-15-7 27z m-62 29l-26-5 12 23c3-7 8-12 14-18z m-11 123l-24 31 35 11z m-11-68l-29 17 31 17c-1-6-2-20-2-34z m-179 191l139 0c-8-16-27-38-60-38l-91 0z m-73-231l55 174 97 0c49 0 76 40 84 61l15 24 49 0-21-86-60-20c-3-1-6-4-6-7-1-3 0-6 2-8l36-44-51-28c-3-2-5-5-5-9 0-4 2-7 5-8l49-29-24-48c-2-3-1-7 1-11 1-3 5-4 9-3l55 9 11-45c1-2 3-5 6-6 1 0 2-1 4-1 2 0 4 1 5 2l44 28c0 0 1 0 1 0 48-7 75-27 78-104l-397 0c6 14 24 40 66 58 46 20 78 58 80 59 3 4 2 11-1 14-4 4-11 3-14-1 0 0-30-36-72-54-55-24-73-60-78-75l-61 0c2 32 12 98 38 158z m436-206c0-5-4-9-9-9l-456 0c-5 0-9 4-9 9l0 29 474 0z"/>
<glyph glyph-name="boots2" unicode="&#117;" d="M503 71c5 6 6 13 5 21-2 5-27 121-91 121l-85 0c-67 0-91 134-92 135-1 9-3 27-3 36l0 85c0 16-12 29-28 29l-19 0c-14 0-30-8-36-18-4-6-14-11-21-11l-67 0c-16 0-28-12-28-28l0-195c-38-43-38-151-38-156 0-8 3-14 8-19-4-1-8-5-8-9l0-19c0-16 12-29 28-29l124 0c5 0 9 4 9 10 0 5-4 9-9 9l-124 0c-5 0-9 4-9 10l0 19c0 1 0 1 0 2 3-1 6-2 9-2l456 0c3 0 6 1 9 2 0-1 0-1 0-2l0-19c0-6-4-10-9-10l-237 0c-6 0-10-4-10-9 0-6 4-10 10-10l237 0c16 0 28 13 28 29l0 19c0 4-4 8-9 9z m-15 11c-1 0-3-1-4-1l-456 0c-5 0-9 3-9 9 0 30 7 117 35 145 2 2 3 4 3 7l0 199c0 6 4 9 9 9l67 0c13 0 29 8 36 18 4 6 13 11 21 11l19 0c5 0 9-4 9-10l0-57-19 0c-6 0-9-3-9-9 0-6 3-10 9-10l19 0 0-9c0-11 2-28 4-39 0-1 2-7 4-18l-17 0c-6 0-10-4-10-9 0-6 4-10 10-10l21 0c4-11 9-25 15-38l-22-11c-5-3-7-9-4-13 2-3 5-5 9-5 1 0 2 0 4 1l21 11c7-12 15-24 24-33l-6-10c-3-4-1-10 3-13 2-1 3-1 5-1 3 0 6 2 8 5l5 8c11-10 25-15 40-15l3 0-1-7c0-6 4-10 8-11 0 0 0 0 1 0 5 0 10 4 10 9l1 9 63 0c41 0 66-76 72-107 1-2 0-4-1-5z m-317 293c5 0 9 3 9 9 0 6-4 9-9 9-6 0-10 4-10 10 0 6 4 9 10 9 5 0 9 4 9 10 0 6-4 9-9 9-16 0-29-12-29-28 0-16 13-28 29-28z m0-86c5 0 9 4 9 10 0 5-4 9-9 9-6 0-10 4-10 10 0 5 4 9 10 9 5 0 9 4 9 10 0 5-4 9-9 9-16 0-29-12-29-28 0-16 13-29 29-29z m31-60c-5-2-10 0-12 3-1 2-1 5-1 8 1 3 3 5 4 6 5 1 7 7 4 12-2 5-7 7-12 4-7-4-12-10-14-16-3-8-2-16 2-22 4-10 15-16 25-16 5 0 9 1 12 2 5 2 7 8 4 13-2 6-7 7-12 6z m65-55c-2-2-6-2-11 1-2 2-4 4-4 7 0 1 0 3 1 5 4 4 3 10-1 13-4 4-10 3-13-1-5-6-7-12-5-20 1-6 5-13 11-18 5-5 12-7 19-7 7 0 14 2 19 8 3 4 2 11-1 13-5 3-11 3-15-1z m95-6c-5 1-9-3-10-9 0-1-4-4-10-3-6 1-9 5-8 5 1 5-3 10-9 11-5 1-9-3-10-9-2-12 9-25 25-26 2 0 3 0 5 0 14 0 25 7 27 19-1 6-5 11-10 12z m-283 74c-5 2-11-2-12-7-2-5 2-10 7-11 1 0 60-18 60-123 0-6 3-10 9-10 6 0 10 4 10 10-1 118-71 140-74 141z"/>
<glyph glyph-name="bottle-glasses" unicode="&#118;" d="M247 332l-86 0c-4 0-7-2-8-6 0 0 0-1-1-2 0 1-1 2-1 2-1 4-5 6-9 6l-85 0c-4 0-8-2-9-6-2-4-40-100-8-148 9-15 24-23 45-26l0-133-19 0c-5 0-9-4-9-10 0-5 4-9 9-9l57 0c6 0 10 4 10 9 0 6-4 10-10 10l-19 0 0 133c19 2 34 7 45 18 9-11 24-17 41-18l0-133-19 0c-6 0-10-4-10-10 0-5 4-9 10-9l57 0c5 0 9 4 9 9 0 6-4 10-9 10l-19 0 0 133c23 2 41 11 53 28 32 49-5 141-7 146-1 4-5 6-8 6z m-85-36c2 7 5 13 6 17l72 0c4-11 13-39 16-66l-85 0c-2 17-6 34-9 49-1-1 0-1 0 0z m-98 17l72 0c3-11 13-39 16-66l-105 0c3 25 11 51 17 66z m31-142c-19 0-32 5-40 17-7 10-9 23-9 40l106 0c-1-14-4-27-11-37-8-14-23-20-46-20z m104 0c-18 0-30 4-38 15 7 12 10 26 10 42l85 0c-1-14-4-27-10-37-9-14-24-20-47-20z m149 292c2-13 9-27 22-27l38 0c12 0 20 14 22 27l2 20c1 7-1 15-5 20-4 6-12 9-19 9l-38 0c-8 0-15-3-20-9-5-5-7-13-6-20z m16 28c2 1 4 2 6 2l38 0c2 0 3-1 5-2 1-1 2-4 1-6l-3-19c0-6-2-10-4-11l-35 0c-1 1-4 6-5 11l-3 19c-1 2-1 4 0 6z m114-244l-38 91c-7 19-13 51-14 70 0 0 0 3 1 7 1 5-3 11-8 12-5 1-10-3-11-8-1-7-1-10-1-11 1-22 7-56 16-77l38-91c7-18 13-50 13-69l-171 0c0 20 7 51 14 69l38 91c8 20 16 54 17 76 0 1 0 5-2 13-2 5-7 8-13 6-4-2-7-7-5-13 1-3 1-5 1-5-1-20-8-51-15-70l-38-91c-9-20-16-55-16-76l0-124c0-26 21-47 48-47l114 0c26 0 47 21 47 47l0 124c0 21-7 56-15 76z m-4-95l0-67-171 0 0 67z m-28-133l-114 0c-16 0-29 12-29 28l0 19 171 0 0-19c0-16-12-28-28-28z"/>
<glyph glyph-name="bottles" unicode="&#119;" d="M442 302c-6 3-11 10-11 14l1 4c1 5-2 11-7 12-5 1-11-3-12-8l-1-5c0-1 0-2 0-2 1-11 10-23 19-31 4-3 11-19 11-39l0-42c-13-8-57-31-93-25-24 5-48-3-68-12l0 22c0 21-8 56-16 76l-7 15c0 0 0 0 0 1 2 3 4 4 4 4 10 7 19 19 20 30 0 2 0 3 0 4l-2 6c-2 5-7 8-13 6-4-2-7-7-5-12l1-3c-2-5-7-12-12-15-1 0-1 0-2-1l-20 48c-9 17-16 49-17 68 0 5 0 13 1 17 0 2 0 3-1 5 7 5 11 14 11 26l0 19c0 16-13 28-29 28l-57 0c-16 0-28-12-28-28l0-19c0-12 4-21 10-26 0-2 0-4 0-6 0-3 1-10 0-16 0-20-7-51-16-69l-36-83c-7-19-15-54-15-75l0-143c0-26 21-47 48-47l132 0c9 0 17 3 24 7 8-4 15-7 24-7l132 0c27 0 48 21 48 47l0 200c0 21-7 47-18 55z m-371-131l40 0c4 0 7 2 8 4 9 16 23 24 37 24 15 0 29-8 37-24 2-2 5-4 9-4l59 0 0-57-59 0c-4 0-7-2-9-5-8-15-20-24-37-24-14 0-28 9-37 24-1 3-4 5-8 5l-40 0z m57 313c0 5 4 9 9 9l57 0c6 0 10-4 10-9l0-19c0-5-1-8-2-10l-72 0c-1 2-2 5-2 10z m-43-225l36 82c9 20 16 54 17 76 0 2 0 13-1 19l57 0c-1-6-1-18-1-19 0-22 8-56 17-76l37-82c7-18 14-49 14-69l-54 0c-13 18-32 28-51 28-19 0-37-10-50-28l-35 0c0 20 7 51 14 69z m15-240c-17 0-29 12-29 28l0 48 35 0c13-18 31-29 50-29 21 0 39 11 52 29l53 0 0-48c0-16-13-28-29-28z m312 0l-132 0c-3 0-6 0-9 1 6 8 9 17 9 27l0 99c18 9 42 19 64 15 36-7 76 11 97 21l0-135c0-16-12-28-29-28z m-151 322l170 0c6 0 10 4 10 10 0 6-4 9-10 9l-170 0c-6 0-10-3-10-9 0-6 4-10 10-10z"/>
<glyph glyph-name="building" unicode="&#120;" d="M503 19l-29 0 0 46c18 5 32 22 32 43 0 38-32 82-33 84-2 2-5 3-7 3-3 0-6-2-8-3-1-2-33-49-33-83 0-17 12-36 30-42l0-47-38 0 0 160c6 0 10 4 10 10 0 5-4 9-10 9l0 237c0 14-10 30-24 34l-116 36c-12 4-30 4-42 0l-116-36c-14-4-24-20-24-34l0-237c-6 0-10-4-10-9 0-6 4-10 10-10l0-161-38 0 0 47c17 5 31 23 31 42 0 38-32 82-33 84-2 2-5 3-8 3-2 0-5-2-7-3-2-3-33-50-33-84 0-18 12-37 31-42l0-47-29 0c-5 0-9-4-9-10 0-5 4-9 9-9l494 0c5 0 9 4 9 9 0 6-4 10-9 10z m-477 89c0 18 12 44 21 60 9-14 22-39 22-60 0-12-10-25-22-25-12 0-21 15-21 25z m88 328c0 7 5 13 11 15l116 36c8 3 23 3 30 0l116-36c6-2 11-8 11-15l0-237-57 0 0 10c0 5-3 9-9 9l-152 0c-6 0-9-4-9-9l0-10-57 0z m76-237l132 0 0-19-132 0z m9-180l0 85 48 0 0-85z m66 0l0 85 48 0 0-85z m67 0l0 85 19 0c6 0 9 4 9 10 0 5-3 9-9 9l-190 0c-6 0-9-4-9-9 0-6 3-10 9-10l19 0 0-85-66 0 0 161 57 0 0-9c0-6 3-10 9-10l152 0c6 0 9 4 9 10l0 9 57 0 0-161z m112 89c0 18 12 44 22 60 8-14 21-39 21-60 0-12-10-25-21-25-12 0-22 15-22 25z m-292 224c5 0 9 4 9 9l0 29 29 0c5 0 9 4 9 9 0 6-4 10-9 10l-38 0c-6 0-10-4-10-10l0-38c0-5 4-9 10-9z m85 0c6 0 10 4 10 9l0 29 28 0c6 0 9 4 9 9 0 6-3 10-9 10l-38 0c-6 0-9-4-9-10l0-38c0-5 3-9 9-9z m85 0c6 0 10 4 10 9l0 29 28 0c6 0 10 4 10 9 0 6-4 10-10 10l-38 0c-5 0-9-4-9-10l0-38c0-5 4-9 9-9z m-132-48c5 0 9 4 9 10 0 6-4 9-9 9l-38 0c-6 0-10-3-10-9l0-38c0-6 4-9 10-9 5 0 9 3 9 9l0 28z m47-37c6 0 10 3 10 9l0 28 28 0c6 0 9 4 9 10 0 6-3 9-9 9l-38 0c-6 0-9-3-9-9l0-38c0-6 3-9 9-9z m85 0c6 0 10 3 10 9l0 28 28 0c6 0 10 4 10 10 0 6-4 9-10 9l-38 0c-5 0-9-3-9-9l0-38c0-6 4-9 9-9z"/>
<glyph glyph-name="building2" unicode="&#121;" d="M228 104c5 0 9 4 9 10l0 114c0 5-4 9-9 9-6 0-10-4-10-9l0-114c0-6 4-10 10-10z m56 0c6 0 10 4 10 10l0 114c0 5-4 9-10 9-5 0-9-4-9-9l0-114c0-6 4-10 9-10z m57 0c6 0 10 4 10 10l0 114c0 5-4 9-10 9-5 0-9-4-9-9l0-114c0-6 4-10 9-10z m-170 0c5 0 9 4 9 10l0 114c0 5-4 9-9 9-6 0-10-4-10-9l0-114c0-6 4-10 10-10z m333 90l-94 23c-1 0-2 0-2 0l0 29c0 1 0 1-1 3l6-2c1 0 3 0 4 0 4 0 8 1 9 5 2 5 0 11-5 13l-61 25 0 80c0 60-37 99-95 104l0 29c0 5-3 9-9 9-6 0-9-4-9-9l0-29c-58-4-95-44-95-104l0-80-61-25c-5-1-8-7-5-12 2-5 8-7 13-5l6 3c0-1-1-2-1-4l0-29-96-24c-5-1-8-4-8-8l0-139c0-5 4-9 9-9l38 0c6 0 10 4 10 9 0 6-4 10-10 10l-28 0 0 121 85 20 0-113c0-5 4-9 10-9l284 0c6 0 10 4 10 9l0 114 85-21 0-121-28 0c-6 0-10-4-10-10 0-5 4-9 10-9l38 0c5 0 9 4 9 9l0 139c0 4-3 7-8 8z m-248 261c39 0 81-20 85-76l-170 0c4 56 46 76 85 76z m-85-95l170 0 0-62-81 33c-2 1-5 1-8 0l-81-33z m85-48l138-57c-3-1-5-5-5-8l0-152-266 0 0 152c0 3-2 7-5 8z m171-274c5 0 9 4 9 9 0 6-4 10-9 10l-342 0c-5 0-9-4-9-10 0-5 4-9 9-9z m28-19l-398 0c-6 0-10-4-10-10 0-5 4-9 10-9l398 0c6 0 10 4 10 9 0 6-4 10-10 10z"/>
<glyph glyph-name="bus" unicode="&#122;" d="M381 174l-44-15c-16-5-24-18-24-36 0-12 12-21 28-21l43 0c15 0 25 10 25 25l0 18c0 9 0 20-7 26-4 6-13 7-21 3z m10-29l0-18c0-4 0-6-7-6l-42 0c-6 0-10 2-10 3 0 10 4 16 12 18l44 15c1 1 2 1 3 1 0-3 0-10 0-13z m-210 15l-42 15c-10 4-17 3-22-3-6-7-5-17-5-25 0-1 0-3 0-4l0-16c0-6 0-25 22-25l43 0c16 0 28 9 28 21 0 18-9 32-24 37z m-4-39l-43 0c-2 0-2 0-3 0 0 1-1 2-1 6l0 16c0 1 0 3 0 5 0 3 0 7 0 10 1 0 1 0 2-1l42-15c6-1 11-5 11-18 1-1-3-3-8-3z m279 279l-9 0 0 28c0 25-19 51-42 59-102 30-187 30-289 0-23-8-42-33-42-59l0-28-9 0c-16 0-28-12-28-28l0-83c0-16 12-28 28-28l9 0 0-170c0-19 12-36 28-42l0-12c0-16 13-28 28-28l28 0c16 0 28 12 28 28l0 10 149 0 0-10c0-16 12-28 28-28l28 0c16 0 28 12 28 28l0 13c17 7 28 24 28 42l0 169 9 0c16 0 28 12 28 28l0 83c0 16-12 28-28 28z m-334 69c98 29 181 29 278 0 14-4 27-21 29-37-9 7-20 13-32 15-18 3-36 4-56 5-3 0-5-1-7-1-3-2-4-5-6-7-6-5-8-6-12-6l-112 0c-4 0-5 0-9 4-2 3-5 6-10 9-2 0-3 0-5 0-20-1-38-3-53-5-13-1-25-7-34-15 2 17 14 34 29 38z m286-403c-5-1-8-5-8-9l0-20c0-5-3-9-9-9l-28 0c-6 0-9 4-9 9l0 19c0 5-4 9-10 9l-167 0c-6 0-9-4-9-9l0-19c0-5-4-9-10-9l-28 0c-5 0-9 4-9 9l0 20c0 4-3 8-7 9-13 2-21 12-21 25l0 141c8-8 20-13 33-15 44-7 89-9 134-9 44 0 89 2 134 9 13 2 25 7 34 16l0-141c0-13-8-23-20-26z m57 223c0-6-3-10-9-10l-9 0 0 65c0 6-4 10-9 10-6 0-10-4-10-10l0-73c0-14-15-32-37-35-88-14-174-14-263 0-22 2-35 20-35 35l0 73c0 6-4 10-9 10-6 0-10-4-10-10l0-65-9 0c-5 0-9 4-9 10l0 83c0 6 4 10 9 10l19 0c5 0 9 3 9 9l0 2c0 15 14 32 36 35 15 2 31 4 49 6 1-1 3-3 4-4 4-5 10-11 22-11l112 0c13 0 19 7 25 13 1 1 1 2 2 2 18-2 34-4 50-6 22-4 35-21 35-35l0-2c0-6 4-9 10-9l18 0c6 0 9-4 9-10z"/>
<glyph glyph-name="champagne" unicode="&#65;" d="M330 446l38-12 3 0c3 0 10 0 21 21l4 10c4 6 4 15 1 21-3 7-8 13-16 15l-24 7c-3 1-6 1-8 1-13 0-23-9-25-22l-2-10c-3-28 4-30 8-31z m10 27l2 11c1 4 4 6 9 5l24-7c2-1 4-2 5-4 1-2 1-4 0-6l-5-9c-1-5-3-8-5-10l-30 9c-1 3 0 6 0 11z m11-378l-190 0c-6 0-9-4-9-10 0-5 3-9 9-9l190 0c6 0 9 4 9 9 0 6-3 10-9 10z m104 142c-9 0-19-3-28-8l0 36c0 17-13 29-29 29l-25 0-6 35c-3 19-1 51 4 69 2 5 4 13 5 16 2 5 0 11-3 13-5 3-11 0-13-4-3-5-5-16-6-19-7-21-9-56-5-78l6-32-118 0 49 51c16 16 34 47 41 67 2 5 5 17 5 22 0 5-5 11-10 11-4 0-9-6-9-12 0-2-2-10-4-16-7-18-23-45-36-60l-57-59c-1-2-2-3-2-5l-100 0c-8 0-15-3-20-9-5-5-7-13-6-20l8-43c-10 8-23 16-39 16-6 0-10-4-10-9 0-6 4-10 10-10 23 0 40-24 40-25 1-1 3-2 4-3l29-164c2-15 16-26 31-26l190 0c15 0 29 12 32 27l19 107c13 2 25 14 25 28l0 45c6 5 17 12 28 12 6 0 10 4 10 10 0 5-4 8-10 8z m-91-208c-1-4-7-10-13-10l-190 0c-6 0-12 5-13 10l-41 238c0 2 0 4 1 6 2 1 4 2 6 2l133 0c5 0 9-4 9-10l0-104c0-16 12-28 28-28l99 0z m44 132c0-6-4-9-10-9l-114 0c-5 0-9 3-9 9l0 104c0 4-1 7-2 10l125 0c6 0 10-4 10-10z"/>
<glyph glyph-name="chaise-longue" unicode="&#66;" d="M479 247l-10 0c-13 0-29-8-38-19l-53-68c-1 1-3 1-3 1l-76 0c-14 0-30-7-38-18l-24-29-194 0c-16 0-29-13-29-29 0-16 13-28 29-28l11 0-27-43c-3-5-2-10 2-13 2 0 4-1 5-1 3 0 7 2 8 5l34 52 270 0c4 0 9 1 12 2l31-54c2-3 4-5 8-5 2 0 3 0 5 1 5 3 7 8 4 13l-30 53c4 3 7 6 9 9l109 140c6 7 7 14 4 21-4 6-11 10-19 10z m-204-116c5 6 16 11 24 11l65 0-13-17c-5-6-16-11-24-11l-65 0z m94-44c-4-5-15-11-23-11l-303 0c-6 0-10 4-10 9 0 6 4 10 10 10l284 0c13 0 30 7 38 19l81 103c4 5 16 11 23 11l10 0z m134 235l-223 164 0 17c0 5-4 9-10 9-5 0-9-4-9-9l0-17-218-160c-1 0-1-1-1-1 0 0-1-1-1-1l-4-2c-4-2-5-9-2-13 3-4 10-5 13-2l5 4c8 4 43 23 77 23 41-1 48-17 48-17 1-3 4-6 7-6 3-1 7 0 8 2 0 0 21 18 68 21l0-154c0-6 4-9 9-9 6 0 10 3 10 9l0 153c46-2 66-20 67-21 2-2 6-3 9-2 2 1 5 3 6 6 0 0 8 17 49 17 38-1 70-18 72-19l9-7c2-1 4-2 6-2 3 0 5 1 7 4 3 4 2 10-2 13z m-92 30c-36 0-53-11-60-19-13 7-39 19-81 19-42 0-68-12-80-19-8 8-25 19-60 19-8 0-15-1-23-2l158 116c1 0 3-1 5-1 2 0 4 1 6 1l158-116c-7 1-15 2-23 2z"/>
<glyph glyph-name="castle" unicode="&#67;" d="M250 419c2-1 4-2 6-2 1 0 2 0 3 1l104 38c4 1 7 5 7 9 0 3-3 7-7 8l-104 38c-3 2-6 1-9-1-2-2-3-5-3-7l0-76c0-3 1-6 3-8z m15 70l68-24-68-25z m162-237c5 6 9 15 9 23l0 104c0 11-8 19-19 19l-47 0c-11 0-19-8-19-19l0-38-48 0 0 38c0 11-8 19-19 19l-56 0c-11 0-19-8-19-19l0-38-48 0 0 38c0 11-8 19-19 19l-47 0c-11 0-19-8-19-19l0-104c0-9 5-18 11-23l32-25c1-1 3-4 2-6l-43-200c-1-6 0-11 3-14 3-5 8-7 14-7l322 0c6 0 11 2 13 7 3 3 5 9 3 14l-43 190c0 2 1 6 2 8z m-10-233l0-10z m-45 188l42-188-317 0 42 198c2 9-2 19-8 25l-32 25c-2 1-4 6-4 8l0 104 47 0 0-38c0-10 9-19 19-19l48 0c10 0 19 9 19 19l0 38 56 0 0-38c0-10 9-19 19-19l48 0c10 0 19 9 19 19l0 38 47 0 0-104c0-3-2-8-4-10l-34-34c-5-5-9-16-7-24z m-103 2c-7 7-20 7-26 0l-25-25c-6-6-9-15-9-23l0-38c0-10 8-19 19-19l56 0c11 0 19 9 19 19l0 38c0 8-3 17-9 23z m15-86l-56 0 0 38c0 3 1 8 3 10l25 24 25-24c2-2 3-7 3-10z"/>
<glyph glyph-name="cards" unicode="&#68;" d="M457 503l-329 0c-26 0-46-20-46-46l0-137-27 0c-26 0-46-20-46-46l0-219c0-26 20-46 46-46l329 0c26 0 46 20 46 46l0 137 27 0c26 0 46 20 46 46l0 219c0 26-20 46-46 46z m-356-92l384 0 0-36-384 0z m310-356c0-16-11-28-27-28l-329 0c-16 0-28 12-28 28l0 219c0 16 12 28 28 28l329 0c16 0 27-12 27-28z m74 183c0-16-12-28-28-28l-27 0 0 64c0 26-20 46-46 46l-283 0 0 37 384 0z m-384 192l0 27c0 16 11 28 27 28l329 0c16 0 28-12 28-28l0-27z m64-339l-74 0c-5 0-9-3-9-9 0-5 4-9 9-9l74 0c5 0 9 4 9 9 0 6-4 9-9 9z m155 0l-110 0c-5 0-9-3-9-9 0-5 4-9 9-9l110 0c5 0 9 4 9 9 0 6-4 9-9 9z m46 174l-92 0c-5 0-9-4-9-9l0-55c0-5 4-9 9-9l92 0c5 0 9 4 9 9l0 55c0 5-4 9-9 9z m-9-55l-74 0 0 37 74 0z"/>
<glyph glyph-name="car-wash" unicode="&#69;" d="M152 247l265 0c6 0 10 3 10 9 0 6-4 9-10 9l-265 0c-6 0-10-3-10-9 0-6 4-9 10-9z m326 12c0 4-1 6-2 9l-30 96c-12 27-41 44-80 44l-160 0c-14 0-29-3-40-8-26 57-69 106-71 109-2 2-5 3-8 3-3 0-5-1-6-3-2-2-48-54-72-112-6-12-9-24-9-38 0-48 40-88 88-88 4 0 7 0 11 1l0-2c-1-3-2-5-2-8-25-8-42-32-39-59l8-102c-1-14 10-25 17-35 1-1 1-2 2-2l0-38c0-15 14-27 29-27l38 0c15 0 28 12 28 27l0 40 209 0 0-39c0-15 13-27 28-27l38 0c15 0 29 12 29 27l0 40c0 0 0 0 0 1 8 11 13 23 14 34l8 103c3 23-9 43-28 54z m-460 100c0 11 2 20 7 30 19 42 49 82 62 98 14-17 45-57 63-98 5-10 6-19 6-30 0-38-31-69-69-69-38 1-69 31-69 69z m470-153l-8-103c-1-10-7-20-12-25-1-1-2-3-2-4 0-1 0-3 0-5l0-42c0-4-5-8-10-8l-38 0c-5 0-9 4-9 8l0 49c0 6-4 9-10 9l-228 0c-6 0-10-3-10-9l0-49c0-4-5-8-9-8l-38 0c-5 0-10 4-10 8l0 42c0 6-3 9-6 10-6 6-14 16-15 24l-8 103c-2 20 11 37 31 40 5 1 9 5 8 10 0 3 0 6 1 9 0 0 0 0 0 0l4 14c33 12 56 44 56 81 0 8-1 16-2 24 9 4 20 6 33 6l160 0c11 0 49-2 62-31l29-96c1-3 1-5 1-8-1-5 2-8 6-10 16-7 25-22 24-39z m-58 8c-21 0-38-18-38-39 0-21 18-38 38-38 22 0 39 18 39 38 0 21-18 39-39 39z m0-59c-11 0-19 9-19 19 0 11 9 20 19 20 12 0 20-9 20-20 0-10-9-19-20-19z m-296 59c-22 0-39-18-39-39 0-21 18-38 39-38 21 0 39 18 39 38 0 21-18 39-39 39z m0-59c-12 0-20 9-20 19 0 11 9 20 20 20 11 0 20-9 20-20 0-10-10-19-20-19z m198 54l-95 0c-10 0-20-5-26-12-5-7-7-17-4-27l4-21c5-20 25-35 45-35l57 0c20 0 40 15 44 35l5 21c3 10 1 20-5 27-5 7-15 12-25 12z m12-35l-5-21c-2-11-15-20-26-20l-57 0c-11 0-24 9-27 21l-4 20c-1 5-1 9 2 12 2 3 5 5 10 5l95 0c5 0 8-2 10-5 3-4 3-8 2-12z m-274 170c-12 7-10 22-9 26l7 19c2 4 0 10-4 12-5 2-11 0-13-5l-8-20c0 0 0-1 0-1-3-11-3-35 19-47 2-1 2-1 4-1 4 0 7 2 9 5 2 4 0 9-5 12z m257-59c2-1 3-1 5-1 3 0 6 2 8 5l38 67c3 4 1 10-3 13-5 3-11 1-14-4l-38-66c-2-5-1-11 4-14z"/>
<glyph glyph-name="car" unicode="&#70;" d="M478 259c0 4-1 6-2 9l-30 96c-12 27-41 44-80 44l-121 0c-9 58-60 104-122 104-68 0-123-55-123-123 0-58 41-107 95-120-1-3-1-4-1-6-25-8-41-32-38-58l8-103c1-14 11-25 19-35 1-1 1-2 2-2l0-38c0-14 14-26 29-26l38 0c15 0 28 12 28 26l0 39 209 0 0-39c0-15 13-27 28-27l38 0c15 0 29 12 29 27l0 40c0 0 0 0 0 1 8 11 13 23 14 34l8 103c3 23-9 43-28 54z m-459 130c0 58 46 104 104 104 58 0 105-46 105-104 0-58-47-105-105-105-58 0-104 47-104 105z m82-319c0 2 0 4-1 6 1-2 1-4 1-6z m387 136l-8-103c-1-10-7-20-12-25-1-1-2-3-2-4 0-1 0-3 0-5l0-42c0-4-5-8-10-8l-38 0c-5 0-9 4-9 8l0 49c0 6-4 9-10 9l-228 0c-6 0-10-3-10-9l0-49c0-4-5-8-9-8l-38 0c-5 0-10 4-10 8l0 42c0 6-3 9-6 10-7 7-15 16-15 24l-9 103c-2 20 11 37 30 40 5 1 9 5 8 11-1 4-1 6 0 8 0 0 0 0 0 1 3 0 7-1 9-1 69 0 124 55 124 124l119 0c11 0 49-2 62-31l29-96c1-3 1-5 1-8-1-5 2-8 6-10 18-6 27-21 26-38z m-336 41l265 0c6 0 10 3 10 9 0 6-4 9-10 9l-265 0c-6 0-10-3-10-9 0-6 4-9 10-9z m278-33c-21 0-38-18-38-39 0-21 18-38 38-38 22 0 39 18 39 38 0 21-18 39-39 39z m0-59c-11 0-19 9-19 19 0 11 9 20 19 20 12 0 20-9 20-20 0-10-9-19-20-19z m-296 59c-22 0-39-18-39-39 0-21 18-38 39-38 21 0 39 18 39 38 0 21-18 39-39 39z m0-59c-12 0-20 9-20 19 0 11 9 20 20 20 11 0 20-9 20-20 0-10-10-19-20-19z m198 54l-95 0c-10 0-20-5-26-12-5-7-7-17-4-27l4-21c5-20 25-35 45-35l57 0c20 0 40 15 44 35l5 21c3 10 1 20-5 27-5 7-15 12-25 12z m12-35l-5-21c-2-11-15-20-26-20l-57 0c-11 0-24 9-27 21l-4 20c-1 5-1 9 2 12 2 3 5 5 10 5l95 0c5 0 8-2 10-5 3-4 3-8 2-12z m-164 159c3 0 6 1 8 4 3 3 3 10-1 13l-54 43 0 62c0 6-4 10-10 10-5 0-9-4-9-10l0-66c0-3 1-6 4-8l56-46c2-1 4-2 6-2z"/>
<glyph glyph-name="cap" unicode="&#71;" d="M442 179l-148 213c17 12 28 32 28 54 0 37-29 66-66 66-37 0-66-29-66-66 0-23 11-43 28-54l-148-213c-24-2-42-22-42-46l0-86c0-26 21-47 48-47l360 0c27 0 48 21 48 47l0 86c0 24-18 44-42 46z m-263 124c5-1 7-2 12-6 5-5 12-13 26-13 13 0 21 7 27 13 4 5 7 6 13 6 6 0 8-1 13-6 6-5 13-13 27-13 13 0 21 7 26 13 4 4 7 5 12 6l85-123-326 0z m30 143c0 26 20 47 47 47 27 0 47-21 47-47 0-27-20-48-47-48-27 0-47 21-47 48z m47-67c8 0 14 1 21 4l43-63c-5-3-9-7-13-10-4-5-6-7-12-7-6 0-9 2-13 7-5 6-13 12-26 12-13 0-21-6-27-12-4-5-7-7-13-7-6 0-8 2-13 7-3 3-8 7-13 10l43 63c9-3 15-4 23-4z m209-332c0-16-13-28-29-28l-360 0c-16 0-29 12-29 28l0 86c0 16 13 28 29 28l360 0c16 0 29-12 29-28z m-361 95c-5 0-9-4-9-9l0-86c0-5 4-9 9-9 6 0 10 4 10 9l0 86c0 5-4 9-10 9z m304 0c-6 0-10-4-10-9l0-86c0-5 4-9 10-9 5 0 9 4 9 9l0 86c0 5-4 9-9 9z m-228 0c-6 0-9-4-9-9l0-86c0-5 3-9 9-9 6 0 10 4 10 9l0 86c0 5-4 9-10 9z m152 0c-6 0-10-4-10-9l0-86c0-5 4-9 10-9 6 0 9 4 9 9l0 86c0 5-3 9-9 9z m-76 0c-6 0-9-4-9-9l0-86c0-5 3-9 9-9 6 0 9 4 9 9l0 86c0 5-3 9-9 9z"/>
<glyph glyph-name="canoe" unicode="&#72;" d="M400 499c-6 5-14 8-25 8-53 0-170-57-243-129-38-40-77-96-103-153-12-28-38-93-18-115 6-6 15-9 26-9 52 0 170 57 243 129 74 75 153 236 120 269z m-363-379c-7 0-10 1-12 3-6 6-3 39 21 94 25 55 62 110 100 147 75 75 187 124 229 124 7 0 11-1 13-3 16-16-41-160-122-240-74-75-187-125-229-125z m195 269c-18 0-35-8-48-21l-47-47c-12-12-19-28-20-45-1-17 4-33 17-45 10-10 25-17 41-17 18 0 35 8 49 21l46 47c26 25 28 66 4 90-11 10-27 17-42 17z m-58-156c-10 0-20 4-28 12-8 7-11 19-11 30 1 12 5 24 15 33l3 3c7-18 23-46 58-60l-2-3c-9-9-22-15-35-15z m82 62l-28-29c-41 11-55 47-59 60l28 29c10 9 23 15 35 15 11 0 21-4 29-12 15-16 13-44-5-63z m238 59l-20 20c-7 6-16 10-26 10-10 0-19-5-27-12l-35-41c-11-13-21-36-21-52 0-6 2-12 5-17l-125-125c-5 2-11 4-17 4-16 0-38-9-53-21l-40-35c-8-6-13-16-13-25 0-11 4-20 11-27l20-20c6-6 16-10 25-10 11 0 20 5 28 12l35 41c11 13 21 36 21 52 0 6-2 11-4 15l126 126c5-2 9-3 15-3 15 0 38 9 52 20l41 36c8 6 12 16 12 25 0 11-2 20-10 27z m-268-286l-35-41c-7-7-18-7-25 0l-20 19c-4 4-6 8-5 13 0 5 2 8 6 12l41 35c10 9 28 16 40 16 1 0 3 0 4-1 0-2 1-5 3-7 2-2 5-3 7-3 0-1 1-2 1-4 0-10-8-28-17-39z m254 248l-41-35c-10-9-28-16-40-16-1 0-1 0-1 0 1 3 1 7-2 9-3 3-7 4-10 2 0 1 0 2 0 3 0 11 7 29 16 40l35 40c4 4 8 6 12 6 5 0 9-2 13-5l20-20c3-3 5-7 4-12-1-5-2-9-6-12z"/>
<glyph glyph-name="camping-knife" unicode="&#73;" d="M499 149c2 2 2 5 2 7l-62 342c0 3-2 5-4 5-2 2-5 2-6 2-51-8-111-112-97-188l17-123-164 0c1 1 1 1 2 2 10 11 4 25 0 36-2 5-6 14-4 15 2 2 10 0 16-2 11-4 26-9 36 2 11 10 4 24 0 36-2 4-6 13-4 15 2 2 11-1 16-3 11-4 26-9 36 2 9 9 4 20 1 25-4 9-8 16 10 34 4 3 4 9 0 13-4 4-10 4-13 0-29-28-19-47-14-56 1-1 2-3 2-4-3-1-10 2-15 3-10 4-25 8-36-2-10-10-4-25 0-36 2-5 6-13 4-15-2-2-11 1-15 3-11 3-26 8-36-2-11-11-4-25 0-36 2-5 5-14 3-15-1-2-1-2-9 0-6 1-13 3-21 0l10 60c1 3-1 7-3 9-3 2-6 3-10 2l-20-7c-2-1-4-3-5-6-4-11-10-18-16-20-6-1-12 0-17 2l11 69c16-3 48-8 55-9 3 0 5 0 6 2 2 2 4 4 4 7 7 43-14 58-31 71-9 6-9 30-8 41 1 4-2 10-7 10l-49 8c-2 0-4 0-6-2-3-1-4-4-5-6l-48-309c-3-11-5-21-5-31 0-53 43-95 95-95l322 0c52 0 95 42 95 95 0 18-5 34-13 49z m-148 171c-12 62 35 146 71 164l56-311c-16 13-38 21-61 21l-49 0z m-281 108l29-5c-1-13 0-38 16-49 15-11 25-18 24-43-19 3-55 8-55 8-4 1-10-2-10-7l-13-85c-1-3 1-6 3-9 1-1 18-13 37-8 12 4 21 13 27 28l1 0-10-63-24 0c-25 0-48-9-65-25z m347-404l-322 0c-42 0-76 34-76 76 0 41 34 75 76 75l322 0c42 0 76-34 76-75 0-42-34-76-76-76z m-322 113c-21 0-38-17-38-37 0-21 17-38 38-38 21 0 38 17 38 38 0 20-17 37-38 37z m0-56c-11 0-19 8-19 19 0 10 8 19 19 19 10 0 19-9 19-19 0-11-9-19-19-19z m322 56c-21 0-38-17-38-37 0-21 17-38 38-38 21 0 38 17 38 38 0 20-17 37-38 37z m0-56c-10 0-19 8-19 19 0 10 9 19 19 19 11 0 19-9 19-19 0-11-8-19-19-19z"/>
<glyph glyph-name="camera" unicode="&#74;" d="M457 402l-78 0-24 33c-11 15-23 31-53 31l-128 0c-30 0-41-15-53-31l-25-33-41 0c-26 0-46-20-46-45l0-266c0-25 20-45 46-45l402 0c26 0 46 20 46 45l0 266c0 25-20 45-46 45z m-402-18l50 0 30 40c11 15 19 24 39 24l128 0c21 0 28-10 38-24l30-40 87 0c16 0 28-12 28-27l0-156-113 0c2 9 3 18 3 28 0 75-61 137-137 137-76 0-137-62-137-137 0-10 0-19 2-28l-76 0 0 156c0 15 12 27 28 27z m302-155c0-66-53-119-119-119-66 0-119 53-119 119 0 65 53 118 119 118 66 0 119-53 119-118z m100-165l-402 0c-16 0-28 12-28 27l0 92 82 0c19-53 69-92 129-92 59 0 110 39 129 92l118 0 0-92c0-15-12-27-28-27z m-219 256c-51 0-92-41-92-91 0-10 2-21 6-31 1-3 4-6 8-6 1 0 2 0 3 1 4 2 7 7 5 12-2 7-3 15-3 24 0 40 32 73 73 73 5 0 9 3 9 9 0 5-4 9-9 9z m164 9l46 0c5 0 9 4 9 9 0 6-4 9-9 9l-46 0c-5 0-9-3-9-9 0-5 4-9 9-9z"/>
<glyph glyph-name="calendar" unicode="&#75;" d="M465 456l-65 0 0 19c0 16-12 28-28 28l-9 0c-16 0-28-12-28-28l0-19-149 0 0 19c0 16-12 28-28 28l-9 0c-16 0-28-12-28-28l0-19-65 0c-26 0-47-20-47-46l0-363c0-27 21-47 47-47l409 0c27 0 47 20 47 47l0 363c0 26-20 46-47 46z m-409-18l65 0 0-19c0-16 12-28 28-28l28 0c5 0 9 4 9 9 0 6-4 10-9 10l-28 0c-6 0-9 3-9 9l0 56c0 5 3 9 9 9l9 0c6 0 10-4 10-9l0-19c-6 0-10-4-10-9 0-6 4-9 10-9l167 0 0-19c0-16 12-28 28-28l28 0c6 0 9 4 9 9 0 6-3 10-9 10l-28 0c-6 0-9 3-9 9l0 56c0 5 3 9 9 9l9 0c6 0 10-4 10-9l0-19c-6 0-10-4-10-9 0-6 4-9 10-9l83 0c16 0 28-13 28-28l0-75-465 0 0 75c0 15 12 28 28 28z m409-419l-409 0c-16 0-28 12-28 28l0 270 465 0 0-270c0-16-12-28-28-28z m-297 260c-6 0-10-3-10-9l0-65-65 0c-5 0-9-4-9-10 0-5 4-9 9-9l75 0c5 0 9 4 9 9l0 75c0 6-4 9-9 9z m0-121c-6 0-10-3-10-9l0-65-65 0c-5 0-9-4-9-10 0-5 4-9 9-9l75 0c5 0 9 4 9 9l0 75c0 6-4 9-9 9z m130 121c-6 0-9-3-9-9l0-65-66 0c-5 0-9-4-9-10 0-5 4-9 9-9l75 0c5 0 9 4 9 9l0 75c0 6-4 9-9 9z m0-121c-6 0-9-3-9-9l0-65-66 0c-5 0-9-4-9-10 0-5 4-9 9-9l75 0c5 0 9 4 9 9l0 75c0 6-4 9-9 9z m130 121c-5 0-9-3-9-9l0-65-65 0c-6 0-10-4-10-10 0-5 4-9 10-9l74 0c6 0 10 4 10 9l0 75c0 6-4 9-10 9z m0-121c-5 0-9-3-9-9l0-65-65 0c-6 0-10-4-10-10 0-5 4-9 10-9l74 0c6 0 10 4 10 9l0 75c0 6-4 9-10 9z"/>
<glyph glyph-name="cake" unicode="&#76;" d="M503 19l-29 0 0 104c0 27-21 48-47 48l-10 0 0 94c0 27-21 48-47 48l-86 0 0 57c0 5-3 9-9 9l-38 0c-6 0-9-4-9-9l0-57-86 0c-26 0-47-21-47-48l0-94-10 0c-26 0-47-21-47-48l0-104-29 0c-5 0-9-4-9-10 0-5 4-9 9-9l494 0c5 0 9 4 9 9 0 6-4 10-9 10z m-256 341l18 0 0-47-18 0z m-105-66l228 0c16 0 28-12 28-29l0-28c-8 0-12 3-18 8-6 4-14 11-29 11-15 0-23-7-30-11-5-5-9-8-18-8-8 0-12 3-18 8-6 4-14 11-29 11-15 0-23-7-29-11-6-5-10-8-18-8-9 0-13 3-18 8-7 4-15 11-30 11-15 0-23-7-29-11-6-5-10-8-18-8l0 28c0 17 12 29 28 29z m-28-76c15 0 23 7 29 11 6 5 10 8 18 8 9 0 13-3 18-8 7-4 14-11 30-11 15 0 22 7 29 11 6 5 9 8 18 8 9 0 12-3 18-8 7-4 14-11 29-11 16 0 23 7 30 11 5 5 9 8 18 8 8 0 12-3 18-8 6-4 14-11 29-11l0-47-284 0z m-29-66l342 0c16 0 28-13 28-29l0-37c-2-1-5-1-7-1-12 0-17 6-25 16-9 9-19 22-39 22-21 0-31-12-39-22-8-10-13-16-25-16-11 0-16 6-24 16-9 9-19 22-39 22-20 0-31-12-39-22-9-10-15-16-26-16-12 0-17 6-25 16-9 9-19 22-39 22-21 0-31-12-39-22-8-10-13-16-25-16-2 0-4 0-6 1l0 37c-1 16 11 29 27 29z m-28-85c2-1 5-1 7-1 20 0 31 13 38 23 9 11 14 15 25 15 11 0 16-5 25-15 8-9 19-23 39-23 20 0 31 13 38 23 9 10 14 15 25 15 11 0 16-5 25-15 8-9 19-23 39-23 20 0 31 13 39 23 8 10 13 15 24 15 12 0 16-5 25-15 8-9 19-23 39-23 3 0 4 0 7 1l0-48-395 0z m199 331c1 0 1 0 2 0 24 4 33 17 36 27 9 28-15 68-31 83-3 3-8 4-12 1-4-2-5-6-4-11 5-13-2-21-15-32-9-8-20-17-20-32 0-28 29-36 44-36z m-11 56c6 6 15 13 19 23 8-15 15-33 11-45 0-3-3-12-20-15-5 0-25 2-25 19 1 6 6 11 15 18z"/>
<glyph glyph-name="cabin" unicode="&#77;" d="M450 294c-9 23-35 41-59 41l-242 0c-24 0-50-18-59-41l-30-88c-8-22-8-55 0-77l30-88c9-23 34-41 59-41l242 0c24 0 50 18 59 41l30 88c8 22 8 55 0 77z m-18-6l31-89c2-6 3-14 4-22l-113 0 0 130c0 4-1 7-2 10l39 0c17 0 35-14 41-29z m-106 29c5 0 9-4 9-10l0-233c0-5-4-9-9-9l-37 0c-6 0-10 4-10 9l0 233c0 6 4 10 10 10z m-75 0c6 0 10-4 10-10l0-233c0-5-4-9-10-9l-37 0c-5 0-9 4-9 9l0 233c0 6 4 10 9 10z m-143-29c6 15 24 29 41 29l39 0c-1-3-2-6-2-10l0-130-113 0c1 8 1 17 4 22z m324-241c-6-15-24-28-41-28l-242 0c-17 0-35 13-41 28l-31 89c-3 5-3 14-4 22l113 0 0-84c0-15 12-27 28-27l37 0c8 0 14 2 19 7 5-5 11-7 19-7l37 0c16 0 28 12 28 27l0 84 113 0c-1-8-2-17-4-22z m80 449c-2 5-7 8-12 7l-219-68-3 6c-1 4-4 6-8 6-4 0-7-2-8-6l-7-14-239-73c-5-2-8-7-7-11 2-5 6-8 10-8 1 0 1 0 2 0l224 69-21-47c-1-2-1-6 1-9 2-3 5-4 8-4l74 0c3 0 7 1 8 4 2 3 2 6 1 9l-19 41c-2 5-7 7-12 5-5-2-7-7-5-12l12-28-45 0 21 48 237 73c5 2 8 8 7 12z"/>
<glyph glyph-name="church" unicode="&#78;" d="M489 160l-134 67c-1 1-3 1-4 1l0 161c0 46-35 80-86 85l0 29c0 5-3 9-9 9-6 0-9-4-9-9l0-29c-51-4-86-38-86-85l0-161c-1 0-3 0-4-1l-134-67c-14-5-23-22-23-36l0-96c0-16 12-28 28-28l456 0c16 0 28 12 28 28l0 96c0 14-9 31-23 36z m-7-17c3-2 7-6 9-10l-121 0 0 19c4 0 6 2 8 5 2 5 0 11-3 13l-24 11 0 27z m-226 312c40 0 70-24 75-57l-150 0c5 33 35 57 75 57z m76-76l0-188-72 36c-3 1-6 1-9 0l-71-36 0 188z m-302-236l131 65 0-27-23-11c-4-2-6-8-3-13 2-2 4-4 8-4l0-19-122 0c2 3 6 7 9 9z m-11-115l0 86 123 0 0-95-114 0c-5 0-9 4-9 9z m256-9l-38 0 0 57c0 6 4 9 10 9l18 0c6 0 10-3 10-9z m19 0l0 57c0 16-12 28-29 28l-18 0c-17 0-29-12-29-28l0-57-57 0 0 141 95 48 95-48 0-141z m199 9c0-5-4-9-9-9l-114 0 0 95 123 0z m-237 237c21 0 38 18 38 38 0 21-17 38-38 38-21 0-38-17-38-38 0-20 17-38 38-38z m0 57c10 0 19-8 19-19 0-10-9-19-19-19-10 0-19 9-19 19 0 11 9 19 19 19z"/>
<glyph glyph-name="destination" unicode="&#79;" d="M434 388l-201 92 0 13c0 6-4 10-10 10-5 0-9-4-9-10l0-437c0-6 4-9 9-9 6 0 10 3 10 9l0 28c78-2 121-22 121-33 0-11-46-32-131-32-84 0-130 21-130 32 0 9 28 26 94 31 6 0 9 5 8 10 0 6-4 9-10 9-53-4-111-20-111-50 0-33 75-51 149-51 75 0 149 18 149 51 0 33-69 50-139 51l0 162 201 93c11 5 12 13 12 15 0 3-1 12-12 16z m-201-103l0 175 191-88z"/>
<glyph glyph-name="disabled" unicode="&#80;" d="M230 399c12 0 23 4 32 11 23 18 28 51 10 75-10 15-26 22-43 22-12 0-23-4-32-10-23-18-28-51-10-76 10-13 26-22 43-22z m-21 83c5 4 13 6 20 6 11 0 21-5 28-14 11-16 8-38-7-49-5-5-13-7-20-7-11 0-21 6-28 14-12 16-10 38 7 50z m222-381l-38 103c0 1 0 1 0 2l-1 2c-3 6-11 20-27 20l-88 0-2 19 57 0c2 0 18-1 28 7 5 5 8 11 8 17 0 9-2 15-8 21-6 7-16 10-28 10l-65 0-3 32c-3 19-10 32-21 41-15 11-34 7-40 6-11-2-20-7-26-16-5-8-8-19-6-28l20-138c2-15 15-39 38-39l101 0 45-95c0-1 7-17 21-22 4-1 8-2 12-2 5 0 10 1 16 4 10 4 14 12 16 18 3 12 0 24-9 38z m-9-31c-1-2-2-4-7-6-4-2-8-3-12-1-6 1-10 9-11 12l-48 100c-2 3-5 6-8 6l-107 0c-13 0-19 18-19 23l-20 136c-1 6 0 11 2 16 3 4 8 7 14 8 4 1 6 1 10 1 7 0 12-2 16-5 7-4 12-14 14-27l4-39c1-5 5-9 10-9l72 0c6 0 12-2 15-4 2-2 2-4 2-8 0-2-1-3-2-4-4-4-11-4-15-4l-95 0c-6 0-9-3-9-9 0-6 3-9 9-9l18 0 4-30c1-5 5-8 9-8l97 0c5 0 7-4 10-11 0-1 1-1 1-2l38-102c0-1 0-1 1-2 6-9 8-17 7-22z m-82 4c-27-35-68-55-112-55-79 0-143 63-143 142 0 50 26 96 69 122 4 2 5 8 2 13-2 5-8 6-13 3-47-30-77-81-77-138 0-89 72-161 162-161 50 0 96 23 127 63 2 3 2 10-2 13-4 3-10 2-13-2z m-217 87c0 6 1 12 2 17 1 5-3 11-7 12-5 1-11-3-12-8-1-8-2-14-2-21 0-36 16-70 44-94 2-2 4-2 6-2 2 0 5 1 7 4 4 4 3 11-1 13-23 19-37 49-37 79z"/>
<glyph glyph-name="church2" unicode="&#81;" d="M428 209l-85 70c-9 7-27 14-40 14l-94 0c-13 0-31-7-40-14l-85-70c-10-9-18-25-18-38l0-143c0-16 13-28 29-28l104 0c6 0 10 4 10 9l0 105c0 26 20 47 47 47 27 0 47-21 47-47l0-105c0-5 4-9 10-9l104 0c16 0 29 12 29 28l0 143c0 13-8 29-18 38z m-1-181c0-5-4-9-10-9l-95 0 0 95c0 37-29 66-66 66-37 0-66-29-66-66l0-95-95 0c-6 0-10 4-10 9l0 143c0 7 6 19 12 23l84 71c7 5 19 9 28 9l94 0c9 0 21-5 28-9l84-71c6-4 12-16 12-23z m-237 275l132 0c3 0 5 1 7 3 1 1 12 14 12 35 0 41-52 70-76 82l0 42 19 0c6 0 10 3 10 9 0 6-4 10-10 10l-19 0 0 19c0 5-3 9-9 9-6 0-9-4-9-9l0-19-19 0c-6 0-10-4-10-10 0-6 4-9 10-9l19 0 0-42c-24-12-76-41-76-82 0-21 11-34 12-35 2-2 4-3 7-3z m66 104c44-23 66-45 66-66 0-9-2-15-4-19l-124 0c-2 4-4 10-4 19 0 21 22 43 66 66z"/>
<glyph glyph-name="church3" unicode="&#82;" d="M428 209l-85 70c-9 7-27 14-40 14l-94 0c-13 0-31-7-40-14l-85-70c-10-9-18-25-18-38l0-143c0-16 13-28 29-28l104 0c6 0 10 4 10 9l0 105c0 26 20 47 47 47 27 0 47-21 47-47l0-105c0-5 4-9 10-9l104 0c16 0 29 12 29 28l0 143c0 13-8 29-18 38z m-1-181c0-5-4-9-10-9l-95 0 0 95c0 37-29 66-66 66-37 0-66-29-66-66l0-95-95 0c-6 0-10 4-10 9l0 143c0 7 6 19 12 23l84 71c7 5 19 9 28 9l94 0c9 0 21-5 28-9l84-71c6-4 12-16 12-23z m-237 275l132 0c3 0 5 1 7 3 1 1 12 14 12 35 0 41-52 70-76 82l0 42 19 0c6 0 10 3 10 9 0 6-4 10-10 10l-19 0 0 19c0 5-3 9-9 9-6 0-9-4-9-9l0-19-19 0c-6 0-10-4-10-10 0-6 4-9 10-9l19 0 0-42c-24-12-76-41-76-82 0-21 11-34 12-35 2-2 4-3 7-3z m66 104c44-23 66-45 66-66 0-9-2-15-4-19l-124 0c-2 4-4 10-4 19 0 21 22 43 66 66z"/>
<glyph glyph-name="dish" unicode="&#83;" d="M512 74c-1 4-5 7-9 7l-48 0c0 28-44 83-57 97 0 7 0 14 1 16l74 0c0 0 1 0 1 0 6 0 10 4 10 10 0 1 0 1 0 2-1 114-87 208-197 224 4 5 7 13 7 20 0 21-17 38-38 38-21 0-38-17-38-38 0-7 3-15 7-20-111-17-197-112-197-227 0-6 4-9 10-9l82 0c-10-9-18-22-21-29l-42 0c-6 0-10-4-10-10l0-37c0-2 1-4 2-6l26-31-66 0c-3 0-7-3-9-7-1-4 0-9 4-10 59-40 108-40 110-40l284 0c2 0 51 0 110 40 3 1 5 6 4 10z m-275 376c0 11 9 19 19 19 10 0 19-8 19-19 0-10-9-19-19-19-10 0-19 9-19 19z m19-38c112 0 204-88 209-199l-418 0c5 111 97 199 209 199z m-190-290l0 25 38 0c4 0 7 2 9 5 5 9 21 33 41 42l164 0c-26-19-33-44-34-46-1-5 2-11 7-11 1 0 2 0 2 0 4 0 9 2 9 7 0 1 9 32 41 41 5 1 7 6 7 9l30 0c-1-4-1-11-2-18 0-1 0-1 0-2 0-5 0-11 0-18 0-22-23-39-24-39-5-3-6-9-3-14 2-2 5-3 7-3 2 0 4 1 6 1 1 1 29 19 32 49 19-25 39-55 39-68l-335 0z m332-79l-284 0c0 0-28 0-67 19l418 1c-39-19-67-20-67-20z m-209 328c-53-21-93-67-107-123-1-4 1-10 6-11 1 0 2 0 3 0 4 0 9 3 10 7 12 49 48 90 95 109 5 2 8 7 6 12-3 6-8 9-13 6z m33-206c-22 11-67-24-86-39-4-4-5-9-1-13 3-4 9-5 13-1 27 23 59 40 65 37 15-7 44-42 54-54 2-2 5-4 8-4 2 0 4 1 6 2 3 3 4 9 2 13-4 5-40 49-61 59z"/>
<glyph glyph-name="dish2" unicode="&#84;" d="M503 204l-494 0c-5 0-9-4-9-10 0-5 4-9 9-9l494 0c5 0 9 4 9 9 0 6-4 10-9 10z m-465 9l436 0c6 0 10 4 10 10 0 1 0 1 0 2-1 113-87 208-197 223 4 6 7 14 7 21 0 21-17 38-38 38-21 0-38-17-38-38 0-7 3-15 7-21-111-16-197-110-197-225 0-6 4-10 10-10z m199 256c0 11 9 19 19 19 10 0 19-8 19-19 0-10-9-19-19-19-10 0-19 9-19 19z m19-38c112 0 204-88 209-199l-418 0c5 111 97 199 209 199z m-67-41c-53-21-93-67-107-123-1-4 1-10 6-11 1 0 2 0 3 0 4 0 9 3 10 7 12 49 48 90 95 109 5 2 8 7 6 12-3 6-8 8-13 6z m269-228c-8 2-15 3-22 3-34 0-51-25-55-31-6-5-38-34-85-34l-2 0c-28 0-46 4-58 9l69 0c15 0 27 5 34 13 14 15 12 34 11 35-1 5-5 9-10 9l-179 0c-78 0-156-141-160-147-2-3-2-7 0-10 2-2 5-4 8-4l132 0c5 0 9 3 10 7 3 13 10 19 13 21l120 0c109 0 169 91 180 116 1 3 1 6 0 7-1 3-4 5-6 6z m-174-110l-123 0c-1 0-3 0-4-1-1 0-16-7-22-27l-109 0c27 44 86 123 135 123l170 0c-1-4-2-9-6-11-5-5-11-8-21-8l-95 0c-3 0-7-2-8-5-2-3-2-5-1-9 2-4 17-33 94-34l2 0c60 0 98 39 100 40 1 1 1 2 2 2 0 0 12 22 39 22 2 0 3 0 5 0-18-25-67-92-158-92z"/>
<glyph glyph-name="clipboard" unicode="&#85;" d="M424 438l-75 0c-1 0-1 0-1 0-3 11-12 18-22 18-3 0-9 5-12 11l-5 12c-6 13-20 24-34 24l-28 0c-14 0-29-11-35-24l-4-12c-3-6-10-11-13-11-10 0-18-7-21-18l-86 0c-26 0-46-21-46-47l0-344c0-27 20-47 46-47l336 0c26 0 46 20 46 47l0 344c0 26-20 47-46 47z m-229 0c12 0 25 10 30 23l5 12c2 5 10 11 17 11l28 0c6 0 15-6 16-11l5-12c1-2 1-3 2-5l-14 0c-6 0-9-4-9-9 0-6 3-9 9-9l37 0c1 0 1 0 2 0 1 0 2 0 3 0 2 0 4-4 4-10l0-9c0-6-3-9-9-9l-121 0c-5 0-9 3-9 9l0 9c0 6 3 10 4 10z m256-391c0-16-12-28-27-28l-336 0c-15 0-27 12-27 28l0 344c0 16 12 28 27 28l84 0c0-16 12-28 28-28l121 0c16 0 28 12 28 28l75 0c15 0 27-12 27-28z m-214 288l-93 0c-5 0-9-4-9-9l0-93c0-6 4-10 9-10l93 0c6 0 10 4 10 10l0 93c0 5-4 9-10 9z m-9-93l-74 0 0 75 74 0z m140 47l-75 0c-5 0-9-4-9-10 0-5 4-9 9-9l75 0c5 0 9 4 9 9 0 6-4 10-9 10z m-131-112l-93 0c-5 0-9-4-9-9l0-94c0-5 4-9 9-9l93 0c6 0 10 4 10 9l0 94c0 5-4 9-10 9z m-9-93l-74 0 0 74 74 0z m140 46l-75 0c-5 0-9-3-9-9 0-6 4-9 9-9l75 0c5 0 9 3 9 9 0 6-4 9-9 9z"/>
<glyph glyph-name="clock" unicode="&#86;" d="M261 503c-139 0-252-113-252-252 0-138 113-251 252-251 138 0 251 113 251 251 0 139-113 252-251 252z m0-484c-129 0-233 104-233 232 0 129 104 233 233 233 128 0 232-104 232-233 0-128-104-232-232-232z m9 287l0 150c0 6-4 9-9 9-6 0-10-3-10-9l0-150c-18-3-32-17-36-36l-85 0c-5 0-9-4-9-9 0-6 4-10 9-10l85 0c5-21 23-37 46-37 26 0 46 21 46 47 0 22-16 41-37 45z m-9-73c-16 0-28 12-28 28 0 15 12 28 28 28 15 0 28-13 28-28 0-16-13-28-28-28z"/>
<glyph glyph-name="dislike" unicode="&#87;" d="M512 318c0 20-13 38-31 44 7 9 12 19 12 31 0 23-16 41-37 47 6 7 9 15 9 25 0 23-21 42-48 42l-137 0c-32 0-71-4-85-10l-19-10c-4-2-6-7-3-12 1-5 7-7 12-4l19 10c7 3 41 7 76 7l137 0c16 0 29-10 29-23 0-14-11-24-24-24-6 0-10-4-10-10 0-5 4-9 10-9l8 0c1 0 2 0 3 1 1-1 2-1 3-1l10 0c16 0 28-12 28-29 0-16-12-28-28-28l-10 0c-6 0-9-4-9-9 0-6 3-10 9-10l10 0c2 0 3 0 6 1 1 0 2-1 3-1l10 0c16 0 28-12 28-28 0-16-12-29-28-29l-19 0c-6 0-10-4-10-9 0-6 4-10 10-10l19 0c16 0 28-12 28-28 0-16-12-29-28-29l-124 0c-3 0-5-2-7-3-2-3-2-6-1-9 8-27 18-110 18-139 0-34-13-38-29-38-13 0-19 8-19 28 0 68-101 209-106 214-2 2-5 4-7 4l-22 0-24 210c-2 15-15 27-30 27l-86 0c-16 0-28-12-28-28l0-218c0-16 12-29 28-29l114 0c8 0 15 3 20 9 3 3 5 6 6 10l17 0c16-22 99-142 99-199 0-42 24-47 38-47 22 0 48 9 48 57 0 24-8 95-16 132l111 0c26 0 47 21 47 48 0 15-8 29-19 38 11 8 19 22 19 38z m-362-58c0-2 0-5-2-6-1-2-4-3-6-3l-114 0c-5 0-9 4-9 10l0 218c0 6 4 9 9 9l86 0c5 0 11-4 11-10z"/>
<glyph glyph-name="dislike2" unicode="&#88;" d="M493 270c11 9 19 23 19 38 0 21-13 38-31 45 7 8 12 19 12 31 0 23-16 41-37 46 6 7 9 16 9 25 0 24-21 43-48 43l-137 0c-36 0-77-7-94-15l-15-8c-3 13-15 23-29 23l-114 0c-16 0-28-13-28-29l0-218c0-16 12-28 28-28l114 0c13 0 23 7 27 19l16 0c17-20 99-124 99-180 0-42 24-48 38-48 22 0 48 10 48 57 0 26-8 81-16 114l111 0c26 0 47 21 47 47 0 15-8 30-19 38z m-351-28l-114 0c-5 0-9 4-9 9l0 218c0 6 4 10 9 10l114 0c6 0 10-4 10-10l0-218c0-5-4-9-10-9z m323-38l-124 0c-3 0-5-2-7-4-2-3-2-6-1-8 8-28 18-93 18-121 0-33-13-38-29-38-13 0-19 9-19 29 0 69-102 190-106 195-2 3-5 4-7 4l-19 0 0 193 22 12c14 6 52 13 87 13l137 0c16 0 29-11 29-24 0-13-11-24-24-24-6 0-10-3-10-9 0-6 4-10 10-10l8 0c1 0 2 0 3 1 1-1 2-1 3-1l10 0c16 0 28-12 28-28 0-16-12-28-28-28l-10 0c-6 0-9-4-9-10 0-6 3-9 9-9l10 0c2 0 3 0 6 1 1 0 2-1 3-1l10 0c16 0 28-13 28-29 0-16-12-28-28-28l-19 0c-6 0-10-4-10-10 0-5 4-9 10-9l19 0c16 0 28-13 28-29 0-16-12-28-28-28z"/>
<glyph glyph-name="cocktail" unicode="&#89;" d="M505 349l-113 121 7 23c2 5-1 11-6 12-5 2-10 0-12-6l-7-21-163-40c-4 0-8-6-6-11 1-4 6-8 11-6l1 0c0 0 0 0 1 0 0 0 26 3 50-5 23-7 28-15 28-15 0-3 2-4 4-5 2-2 4-1 7-1 0 0 14 3 40-3l-21-67c-2-5 1-10 6-12 1 0 2 0 3 0 4 0 8 3 9 6l22 67c26-9 36-20 36-20 2-2 4-4 7-4 2 0 4 1 6 2 0 0 8 5 32-3 24-7 41-21 41-21 1-1 2-1 2-1l2-3c2-2 5-3 7-3 2 0 5 1 6 3 3 4 3 9 0 13z m-95 35c-8 5-22 15-48 23-26 8-44 8-53 7-5 6-15 13-35 20l104 24 73-78c-21 6-34 5-41 4z m3-78c0 1-1 1-1 2 0 0-1 1-1 1 0 0 0 1-1 1-1 0-1 1-2 1-1 0-1-2-2-2-1 0-1-2-2-2-62-9-175-3-177-3-3 0-6-1-8-2l-35-50 3 43c0 5-3 9-7 10l-77 14c-1 2-2 3-2 4-5 3-11 2-13-3-23-34-35-74-35-116 0-112 87-203 193-203 106 0 193 91 193 204 0 35-9 71-26 101z m-167-286c-96 0-174 82-174 185 0 34 9 68 26 97l70-13-4-69c0-5 2-9 6-10 1 0 2-1 3-1 3 0 6 2 8 4l50 74c22-1 111-3 168 3 14-27 21-56 21-86 1-102-77-184-174-184z m-94 306c2-3 4-5 8-5 2 0 3 0 5 1 4 3 6 8 3 12l-49 95c-1 2-2 3-4 4l-96 59c-5 2-11 1-13-3-2-5-1-11 3-13l95-58z m220-133c-4 0-9-4-10-9 0-1-5-69-66-108-5-2-6-8-3-13 2-2 5-4 8-4 2 0 3 1 4 2 70 44 76 119 76 122 0 5-4 10-9 10z"/>
<glyph glyph-name="cocktail2" unicode="&#90;" d="M370 389l-204 0-15 22c6 6 10 16 10 25 0 21-17 38-38 38-4 0-9-1-14-3l-26 37c-2 4-8 5-13 2-4-3-5-8-2-13l26-37c-6-7-9-15-9-24 0-21 17-38 38-38 4 0 9 1 12 2l8-11-77 0c-3 0-7-2-8-6-2-4-1-8 2-10l149-168 0-148c0-6 3-10 9-10 29 0 47-16 58-28l-117 0c6 8 15 16 28 22 5 2 6 7 5 12-2 5-8 7-13 5-31-14-44-44-45-45-1-3-1-6 1-9 1-2 4-4 7-4l152 0c3 0 7 2 8 5 2 3 2 6 0 9 0 2-24 47-74 52l0 139 148 168c3 2 3 6 2 10-1 4-4 6-8 6z m-266 47c0 6 3 12 7 14 0 0 0 0 1 1 4 3 7 4 11 4 11 0 19-8 19-19 0-10-8-19-19-19-10 0-19 9-19 19z m114-213l-80 90 161 0z m97 109c-1 0-1 0-2 0l-190 0c-1 0-1 0-2 0l-34 38 261 0z m134 113l-75 28c-4 1-8 0-11-3l-47-57c-4-3-3-10 1-13 2-2 3-2 5-2 3 0 6 1 8 4l43 52 69-26c5-2 10 1 12 5 2 5 0 10-5 12z"/>
<glyph glyph-name="do-not-disturb" unicode="&#48;" d="M209 171c-6 0-10-4-10-10l0-38c0-5 4-9 10-9l94 0c6 0 10 4 10 9l0 38c0 6-4 10-10 10z m85-38l-76 0 0 19 76 0z m-38 379c-74 0-137-58-142-132 0-2-1-8 4-13 5-5 12-7 22-7l34 0c16 0 24 6 26 18 4 28 29 49 56 49 31 0 57-26 57-57 0-29-20-48-59-57-92-23-140-72-140-142l0-124c0-26 21-47 47-47l190 0c26 0 47 21 47 47l0 323c0 78-63 142-142 142z m123-465c0-16-12-28-28-28l-190 0c-16 0-28 12-28 28l0 124c0 60 42 102 125 123 61 15 74 49 74 76 0 41-34 76-76 76-37 0-69-28-75-65-1-1-3-2-7-2l-34 0c-3 0-5 0-7 1 5 64 59 113 123 113 68 0 123-55 123-123z m-123 190c-52 0-95-43-95-95 0-52 43-95 95-95 52 0 95 43 95 95 0 52-43 95-95 95z m0-171c-42 0-76 35-76 76 0 42 34 76 76 76 42 0 76-34 76-76 0-41-34-76-76-76z"/>
<glyph glyph-name="coffee-to-go" unicode="&#49;" d="M379 279c-26 0-52-8-73-23l10 107 10 0c5 0 9 4 9 9 0 1 0 2-1 3l-9 63c0 5-4 9-8 9l-30 0-6 30c-1 4-5 7-9 7l-210 0c-4 0-8-3-9-7l-5-30-29 0c-5 0-9-4-10-9l-9-65c0-3 0-5 2-7 2-2 5-3 7-3l11 0 25-271c1-12 10-22 22-26l7-31c1-4 5-7 10-7l167 0c5 0 9 3 10 7l7 32c5 2 9 4 13 7 24-28 60-46 97-46 69 0 126 57 126 126 0 68-56 125-125 125z m-331-28l56 0c4 0 7 2 9 5 9 15 22 23 36 23 14 0 28-8 36-23 2-3 5-5 9-5l93 0-7-65-86 0c-4 0-7-2-9-4-8-15-20-24-36-24-14 0-28 9-36 24-2 2-5 4-9 4l-49 0z m22 214l194 0 4-18-201 0z m-43-37l281 0 7-46-295 0z m270-65l-8-93-90 0c-12 18-31 28-49 28-20 0-37-10-49-28l-54 0-9 93z m-53-316l-153 0-4 18 162 0z m17 37l-187 0c-5 0-10 4-11 10l-6 74 43 0c12-18 30-28 49-28 20 0 38 10 50 28l80 0-6-74c-2-6-7-10-12-10z m118-37c-35 0-67 16-88 44 0 0-1 1-1 1l12 115c1-2 3-3 6-3 3 0 5 1 7 3 3 3 3 9 0 13l-10 9c0 0-1 0-1 1 1 0 2 1 3 2 20 18 46 29 73 29 58 0 107-49 107-107 0-59-49-107-108-107z m0 170c-35 0-63-28-63-63 0-36 28-64 63-64 35 0 63 28 63 64 0 35-29 63-63 63z m0-108c-24 0-45 19-45 45 0 25 20 44 45 44 24 0 45-19 45-44 0-26-21-45-45-45z m-16 124l19 0c5 0 9 3 9 9 0 6-4 9-9 9l-19 0c-6 0-9-3-9-9 0-6 3-9 9-9z m90-22l-9 10c-4 3-9 3-13 0-4-4-4-10 0-13l9-10c2-2 5-3 7-3 3 0 4 1 6 3 4 4 4 10 0 13z m24-62c-2 5-8 6-12 5l-13-6c-4-2-6-7-4-12 2-4 4-6 8-6 1 0 3 0 4 1l12 6c5 2 6 7 5 12z m-54-57c-5 2-11 0-12-4l-6-13c-2-4 0-10 5-12 1-1 2-1 3-1 4 0 7 2 9 6l5 12c2 5 0 10-4 12z m-79 1l-18 0c-6 0-9-4-9-9 0-6 3-10 9-10l18 0c6 0 10 4 10 10 0 5-4 9-10 9z"/>
<glyph glyph-name="dog" unicode="&#50;" d="M455 341l-38 0c-6 0-9-3-9-9 0-6 3-10 9-10l38 0c15 0 28 5 36 16 21 21 19 59 19 61 0 5-5 9-9 9l-58 0-8 22c-1 3-5 6-8 6l-67 0 0 67c0 3-2 6-5 8-3 2-7 1-10-1-2-2-50-39-51-92 0 0 0 0 0-1-9-14-16-26-16-26-8-11-13-28-13-40l0-29c0-7-4-20-10-25l-165-160c-9 1-32 7-33 21 0 8 7 13 10 15 5 1 7 7 4 12-2 5-7 7-12 5-14-7-22-19-21-33 2-33 49-38 51-39 0 0 1 0 1 0 1 0 3 0 4 1 0 0 0 0 1 0 3 0 5 0 6 2l167 163c3 3 5 6 8 10l85-34-1-7c0 0 0-1 0-1 0-1-1-15 5-30 0-1 1-1 1-2 0-2 0-3 0-5 13-36 44-116 61-161 2-5 6-8 13-14 2-2 6-5 7-6l5-14c-2-1-4-1-6-1l-29 0c-6 0-17 6-20 11l-46 80c-8 13-25 19-39 12l-28-12c1 2 2 4 2 6 13 26-29 53-34 56-5 2-10 1-13-3-3-5-1-11 3-14 13-8 30-23 26-32 0 0 0-1-1-1-9-27-38-59-39-59-3-3-3-7-2-11 2-4 4-6 8-6l40 0c3 0 28 0 32-28l-183 0c-4 6-13 16-26 30-8 8-13 16-15 25 0 3-2 6-5 7-1 1-2 2-4 2-28 15-60 40-52 83 3 17 13 26 22 29 14 8 32 9 47 2 5-2 11 0 12 5 2 5 0 10-4 12-20 9-45 8-64-3-17-8-28-24-31-42-8-42 14-79 61-103 3-10 9-19 18-29 18-20 27-33 28-33 2-3 5-4 8-4 1 0 1 0 1 0 1 0 1 0 2 0l197 0c5 0 9 4 9 10 0 44-34 56-52 56l-19 0c4 6 9 12 13 19 1 0 3 0 4 1l45 20c4 2 12 0 15-4l45-80c10-12 26-21 39-21l29 0c4 0 18 1 23 9 3 2 4 7 3 11 0 1 0 1 0 2l-7 20c-2 4-6 7-13 13-3 2-6 5-7 7-17 44-48 124-61 160 0 1-1 1-1 2 0 2 0 3 0 5-4 9-4 19-3 21l6 32c5 12 21 12 22 12l28 0c6 0 10 4 10 9 0 6-4 10-10 10l-28 0c-1 0-30 1-42-25 0-1-1-2-1-3l-1-7-81 32c1 4 2 9 2 12l0 29c0 8 4 23 9 30 0 0 8 13 17 28 1 1 1 2 1 3 1 2 2 4 2 6 0 27 16 49 28 64l0-55c0-6 4-10 10-10l69 0 8-22c1-3 4-6 8-6l55 0c-1-11-4-28-13-39-7-6-14-9-24-9z"/>
<glyph glyph-name="coliseum" unicode="&#51;" d="M512 484c0 16-12 28-28 28l-456 0c-16 0-28-12-28-28l0-10c0-8 3-14 8-19-5-5-8-11-8-19l0-152c0-7 3-14 8-19-5-4-8-11-8-18l0-10c0-8 3-14 8-19-5-5-8-11-8-19l0-171c0-16 12-28 28-28l29 0c6 0 9 4 9 9l0 95c0 27 17 48 38 48 21 0 38-21 38-48l0-95c0-5 4-9 10-9l57 0c5 0 9 4 9 9l0 95c0 27 17 48 38 48 21 0 38-21 38-48l0-95c0-5 4-9 9-9l57 0c6 0 10 4 10 9l0 95c0 27 17 48 38 48 21 0 38-21 38-48l0-95c0-5 3-9 9-9l29 0c16 0 28 12 28 28l0 171c0 8-3 14-8 19 5 5 8 11 8 19l0 10c0 7-3 14-8 18 5 5 8 12 8 19l0 152c0 8-3 14-8 19 5 5 8 11 8 19z m-493 0c0 5 4 9 9 9l456 0c5 0 9-4 9-9l0-10c0-6-4-9-9-9l-456 0c-5 0-9 3-9 9z m474-48l0-152c0-5-4-9-9-9l-19 0 0 66c0 37-26 67-57 67-32 0-57-30-57-67l0-66-38 0 0 66c0 37-26 67-57 67-31 0-57-30-57-67l0-66-38 0 0 66c0 37-25 67-57 67-31 0-57-30-57-67l0-66-19 0c-5 0-9 4-9 9l0 152c0 6 4 10 9 10l456 0c5 0 9-4 9-10z m0-189l0-10c0-6-4-9-9-9l-456 0c-5 0-9 3-9 9l0 10c0 5 4 9 9 9l456 0c5 0 9-4 9-9z m-351 28l-76 0 0 66c0 27 17 48 38 48 21 0 38-21 38-48z m152 0l-76 0 0 66c0 27 17 48 38 48 21 0 38-21 38-48z m152 0l-76 0 0 66c0 27 17 48 38 48 21 0 38-21 38-48z m47-247c0-5-4-9-9-9l-19 0 0 85c0 37-26 67-57 67-32 0-57-30-57-67l0-85-38 0 0 85c0 37-26 67-57 67-31 0-57-30-57-67l0-85-38 0 0 85c0 37-25 67-57 67-31 0-57-30-57-67l0-85-19 0c-5 0-9 4-9 9l0 171c0 6 4 10 9 10l456 0c5 0 9-4 9-10z"/>
<glyph glyph-name="dolphin" unicode="&#52;" d="M473 134l2 5c17 62 36 126-32 245-9 16-21 30-30 38 4 4 11 8 13 9 59 16 66 23 69 29 2 3 2 7 0 10-1 2-2 3-3 4-18 14-51 22-94 22-37 0-73-6-90-10-21 6-45 9-70 9-43 0-82-10-107-17-54-18-73-50-81-63-1-2-1-3-2-4-2-4-3-7-4-9 0-1-1-1 0-1 0 0-2-1-9-2-25-3-34-33-34-34-1-4 0-7 3-10 9-7 22-11 43-11 11 0 22 1 33 2 10 1 19 2 25 1 9-1 24-5 41-10 5-1 9-3 14-4 2-4 5-9 9-15 10-17 22-37 40-46 22-11 48-11 62-11l2 0c3 0 7 0 9 0 1 0 2 0 3 0 5 0 9 4 9 10 0 4-2 7-5 9-20 15-34 26-42 35 79-16 122-58 144-91 25-38 29-73 25-86-1-7-16-18-25-24-3-2-6-5-9-7-13-10-26-48-23-58 2-5 9-9 14-6 6 3 16 9 28 16 12 7 25 16 33 19 1 0 1 0 2 0 4 0 12-5 21-18 14-19 21-38 21-38 1-4 4-6 8-6 4 0 7 2 9 6 2 3 15 28 13 50-1 22-13 43-35 62z m13-85c-4 7-7 14-12 22-12 18-25 26-37 26-4 0-7-1-11-1-9-4-21-12-34-20-3-2-5-3-8-5 3 9 7 18 11 21 2 2 5 4 8 5 13 10 29 22 32 36 5 21-2 61-28 101-26 40-77 89-174 103-2 0-4 1-6 1l-1 0c-2 0-5-1-8-3-2-2-3-6-3-9 1-4 3-15 39-44-12 1-25 3-36 7-12 6-23 24-32 39-5 8-9 16-14 21-1 1-3 2-5 3-6 1-11 2-16 4-19 6-35 10-46 11-8 1-17 0-28-1-10-1-21-2-31-2-12 0-19 1-23 3 3 5 8 12 14 13 15 2 21 5 25 16 1 2 1 3 2 5 1 1 2 3 3 5 7 12 23 39 70 55 23 8 60 17 101 17 24 0 47-3 68-9 2-1 4-1 6 0 14 4 50 10 87 10 30 0 54-4 71-12-8-3-23-8-48-15-8-4-28-18-33-25-2-2-2-5-2-8 1-3 3-4 5-6 3-2 21-16 33-39 48-84 51-137 42-183-13 80-40 125-60 154-67 92-173 101-219 71-38-24-71-15-73-15-5 1-11-2-12-7-1-5 2-11 7-12 2 0 43-11 89 18 41 25 135 13 193-68 23-32 54-87 62-194l-2-5c-1-4 0-8 3-10l2-1c8-6 30-24 32-52 1-7-1-14-3-21z m-151 64c-15 0-23-7-30-12-5-5-9-7-17-7-7 0-11 2-16 7-6 6-14 12-30 12-15 0-22-7-29-12-5-5-8-7-16-7-8 0-11 2-17 7-6 6-14 12-29 12-15 0-23-7-30-12-5-5-9-7-17-7-8 0-10 2-16 7-6 5-14 12-29 12-6 0-10-4-10-10 0-6 4-9 10-9 8 0 11-3 17-8 6-6 14-12 29-12 15 0 23 7 30 12 5 5 9 8 17 8 8 0 10-3 16-8 6-6 14-12 30-12 15 0 23 7 29 12 5 5 9 8 17 8 8 0 12-3 17-8 6-6 14-12 29-12 15 0 23 7 30 12 5 5 9 8 17 8 6 0 10 3 10 9 0 6-6 10-12 10z"/>
<glyph glyph-name="double-bed" unicode="&#53;" d="M491 236l-11 33c-1 4-3 7-6 11l0 91c0 8-6 18-13 22-126 72-284 72-410 0-7-3-13-14-13-22l0-92c-3-3-5-7-6-11l-11-33c-12-2-21-13-21-26l0-128c0-14 12-24 28-24l19 0c16 0 30 11 34 25l0 1c1 6 8 12 14 12l322 0c6 0 13-6 14-12l0-1c4-14 18-25 34-25l19 0c16 0 28 10 28 24l0 128c0 13-9 24-21 27z m-425 39l380 0c6 0 14-6 16-11l8-27-428 0 8 27c2 5 10 11 16 11z m162 19l-114 0 0 28c0 6 4 10 9 10l95 0c6 0 10-4 10-10z m170 0l-114 0 0 28c0 6 4 10 10 10l95 0c5 0 9-4 9-10z m-337 83c120 68 270 68 390 0 2-1 4-4 4-6l0-79c-3 1-7 2-9 2l-29 0 0 28c0 16-12 29-28 29l-95 0c-16 0-29-13-29-29l0-28-18 0 0 28c0 16-13 29-29 29l-95 0c-16 0-28-13-28-29l0-28-29 0c-2 0-6-1-9-2l0 79c0 2 2 5 4 6z m432-296c0-2-4-5-9-5l-19 0c-6 0-14 6-15 11l0 1c-3 14-18 26-33 26l-322 0c-15 0-30-12-33-26l0-1c-1-5-9-11-15-11l-19 0c-5 0-9 3-9 5l0 128c0 5 4 9 9 9l456 0c5 0 9-4 9-9z"/>
<glyph glyph-name="column" unicode="&#54;" d="M512 360c0 48-38 86-85 86l-342 0c-47 0-85-38-85-86 0-47 38-85 85-85l0-218c0-9-3-22-7-28-5-6-5-13-2-19 3-6 10-9 19-9l322 0c9 0 16 4 19 9 3 6 3 13-2 19-4 7-7 19-7 28l0 218c47 0 85 38 85 85z m-493 0c0 37 29 67 66 67l342 0c37 0 66-30 66-67 0-37-29-66-66-66-21 0-38 8-48 25-4 8-9 21-5 34 1 9 8 17 18 22 12 8 29 7 40 0 5-4 13-12 9-25-2-7-9-11-13-10-4 0-8 2-9 8-1 5-6 9-10 8-5-1-9-6-8-11 2-13 12-23 27-24 13 0 28 8 33 24 5 17-2 34-15 45-17 13-43 14-62 3-13-9-23-20-27-35 0-1 0-4 0-7l-198 0c0 3-1 5-1 7-3 15-12 26-26 35-19 11-45 10-62-3-14-11-20-28-15-45 4-17 20-25 33-24 14 1 25 10 27 24 1 5-3 11-8 11-5 1-10-3-10-8-1-6-5-7-9-8-6 0-11 3-13 10-4 13 4 21 8 25 12 8 28 8 41 0 10-5 15-13 18-22 3-14-1-27-5-34-10-17-27-25-48-25-41 0-70 29-70 66z m399-341c0 0-1 0-1 0l-322 0c0 0-1 0-1 0 6 9 10 26 10 38l0 218c0 1 0 1 0 2 19 5 35 15 46 32 5 7 7 15 8 23l197 0c2-8 4-16 8-23 11-16 27-27 46-32 0-1 0-1 0-2l0-218c-1-12 3-29 9-38z m-346 447l19-10c5-2 10 0 12 4 2 5 0 10-3 12l-15 8 0 13 342 0 0-13-14-7c-4-2-6-7-3-12 1-4 3-6 7-6 1 0 3 0 4 1l19 10c4 1 6 4 6 8l0 29c0 5-4 9-10 9l-360 0c-6 0-10-4-10-9l0-29c0-4 2-7 6-8z m184-210c-6 0-9-4-9-9l0-171c0-6 3-10 9-10 6 0 9 4 9 10l0 171c0 5-3 9-9 9z m76 0c-6 0-10-4-10-9l0-171c0-6 4-10 10-10 6 0 9 4 9 10l0 171c0 5-3 9-9 9z m-152 0c-6 0-9-4-9-9l0-171c0-6 3-10 9-10 6 0 10 4 10 10l0 171c0 5-4 9-10 9z"/>
<glyph glyph-name="compass" unicode="&#55;" d="M261 455c-125 0-228-102-228-227 0-126 103-228 228-228 125 0 227 102 227 228 0 125-102 227-227 227z m0-436c-115 0-209 94-209 209 0 114 94 208 209 208 114 0 208-94 208-208 0-115-94-209-208-209z m0 389c-100 0-180-81-180-180 0-100 80-181 180-181 99 0 180 81 180 181 0 99-81 180-180 180z m0-342c-89 0-161 72-161 162 0 89 72 161 161 161 89 0 161-72 161-161 0-90-72-162-161-162z m-57 399c6 0 9 3 9 9l0 9c1 2 6 4 12 6 23 5 48 5 72 0 5-2 10-4 11-6l0-9c0-6 4-9 10-9 5 0 9 3 9 9l0 10c0 11-13 20-26 23-27 6-54 6-81 0-12-3-26-12-26-23l0-10c0-6 4-9 10-9z m147-134l-123-66c-2-1-3-2-4-4l-67-124c-2-3-1-8 2-11 2-2 4-3 7-3 2 0 3 0 5 1l123 67c2 1 3 1 4 3l66 124c2 3 1 8-2 11-3 3-7 4-11 2z m-116-90c0-1 0-1 0 0l38-39c0 0 0 0 1 0l-84-46z m51-27c0 1 0 1 0 0l-38 39c0 0 0 0-1 0l85 46z"/>
<glyph glyph-name="drink" unicode="&#56;" d="M346 301c-5 7-8 14-9 22-3 40 8 71 8 72 1 3 1 7-1 9-2 2-5 4-7 4l-184 0c-3 0-6-2-8-4-2-3-2-6-1-9 0 0 12-31 9-72-1-8-5-14-10-22-8-14-18-31-21-66-1-22 7-43 23-61 23-24 59-37 86-41l0-76c0-6 4-10 10-10 28 0 47-16 58-28l-116 0c6 8 15 16 27 22 5 2 7 7 5 12-2 5-7 7-12 5-31-14-45-44-46-45-1-3-1-6 1-9 1-2 5-4 8-4l152 0c2 0 6 2 8 5 2 3 2 6 0 9-1 2-24 47-75 52l0 67c29 2 69 15 93 41 16 18 24 38 23 61-3 36-13 52-21 66z m-186-10c6 10 12 18 13 31 1 29-2 53-6 68l158 0c-4-15-8-39-5-68 0-13 6-21 12-30 4-7 8-14 12-25l-196 0c3 9 7 16 12 24z m170-103c-24-25-63-36-83-36l-3 0c-21 0-61 11-84 36-12 13-19 29-18 46 0 5 1 9 1 13l203 0c1-4 1-9 1-13 2-17-5-33-17-46z m105 295l-76 28c-4 2-9 0-11-5l-38-76c-2-4 0-10 4-12 1-1 2-1 4-1 3 0 6 2 8 6l34 68 69-25c4-2 10 0 12 5 1 5-1 10-6 12z m-345-94c0 41 34 76 76 76 24 0 45-11 61-31 2-4 9-4 13-2 4 3 5 10 2 14-19 24-47 38-76 38-52 0-95-43-95-95 0-30 13-57 36-75 2-1 4-2 7-2 3 0 5 1 7 4 3 4 3 10-2 13-18 14-29 36-29 60z"/>
<glyph glyph-name="eat" unicode="&#57;" d="M265 57c-89 0-161 72-161 161 0 89 72 161 161 161 90 0 162-72 162-161 0-89-72-161-162-161z m0 303c-78 0-142-63-142-142 0-79 64-142 142-142 79 0 143 63 143 142 0 79-64 142-143 142z m0-256c-30 0-58 12-80 33-4 4-4 10 0 14 4 4 9 4 13 0 18-18 42-28 67-28 53 0 95 43 95 95 0 28-12 54-33 72-4 4-5 10-1 13 4 4 10 5 13 1 26-21 40-53 40-86 0-63-51-114-114-114z m-104 105c-6 0-9 3-9 9 0 63 51 114 113 114 6 0 10-4 10-10 0-5-4-9-10-9-52 0-94-43-94-95 0-6-4-9-10-9z m-104 132c-8 0-21 5-30 10l-4 2c-14 6-23 22-23 36l0 95c0 5 4 9 9 9 6 0 10-4 10-9l0-95c0-7 6-16 11-19l4-2c10-5 20-8 23-8 3 0 13 3 22 8l4 2c6 3 12 12 12 19l0 95c0 5 4 9 9 9 6 0 10-4 10-9l0-95c0-14-10-30-22-36l-5-2c-9-5-23-10-30-10z m0-341c-15 0-38 24-38 66 0 26 8 67 15 107 7 34 13 66 13 83l0 85c0 6 4 10 10 10 6 0 9-4 9-10l0-85c0-7 5-31 10-57 8-45 19-103 19-133 0-42-23-66-38-66z m1 192c-2-7-3-15-5-23-7-38-15-79-15-103 0-32 15-46 19-47 4 1 19 15 19 47 0 28-11 84-18 126z m426-192c-23 0-48 12-48 47 0 15 2 28 5 42 3 16 5 33 5 53l0 56c0 3 0 10 4 15 3 3 6 6 11 8-10 16-24 52-24 119 0 156 62 170 65 171 2 1 5 0 7-2 2-1 3-4 3-6l0-465c0-13-6-38-28-38z m9 209c-20 0-27-5-27-6-1-1-1-2-1-2 1-1 0 0 0-2l0-57c0-21-3-40-6-56-2-13-4-26-4-39 0-23 15-28 29-28 8 0 9 19 9 19z m0 276c-14-13-38-49-38-144 0-74 18-106 24-114 5 1 9 1 14 1z"/>
<glyph glyph-name="cup" unicode="&#33;" d="M389 19l-370 0c-6 0-10-4-10-10 0-5 4-9 10-9l370 0c5 0 9 4 9 9 0 6-4 10-9 10z m107 280c-26 30-79 24-88 23l0 38c0 6-4 10-10 10l-389 0c-5 0-9-4-9-10l0-66c0-110 0-165 22-187 18-18 16-49 16-49 0-3 1-5 3-7 2-3 4-4 6-4l313 0c3 0 5 1 7 3 2 2 3 5 3 7 0 0-2 32 16 49 4 4 7 10 10 16 3-1 10-3 18-3 7 0 15 1 22 5 28 12 49 42 66 90 12 37 10 65-6 85z m-107-5c0-98 0-157-16-174-17-17-21-40-22-54l-294 0c-1 14-5 37-22 54-16 17-16 76-16 174l0 57 370 0z m96-73c-19-53-39-72-55-79-15-6-27-1-27-1 0 0-1 0-1 0 6 32 6 80 6 153l0 9c1 0 1 0 2 0 14 2 55 3 72-17 11-14 12-36 3-65z m-371-98l218 0c6 0 9 4 9 10 0 5-3 9-9 9l-218 0c-6 0-10-4-10-9 0-6 4-10 10-10z m50 269c2-2 5-3 7-3 3 0 4 1 6 3 4 3 4 9 0 13 0 0-5 6-8 14-4 11-1 20 8 29 12 12 16 23 15 36-1 17-15 26-17 27-4 3-10 2-13-3-3-5-1-10 3-13 0 0 8-6 9-13 0-6-3-13-10-20-27-28-12-58 0-70z m63 16c2-10 8-15 9-16 2-2 4-3 7-3 3 0 4 1 6 3 4 3 4 9 0 13-2 3-11 14 0 25 9 9 13 18 12 27-1 13-12 20-13 21-4 3-10 2-13-3-4-4-2-10 2-13 0 0 4-3 5-7 0-4-3-8-6-11-10-11-14-24-9-36z"/>
<glyph glyph-name="desktop" unicode="&#34;" d="M465 503l-409 0c-26 0-47-21-47-47l0-307c0-26 21-47 47-47l409 0c27 0 47 21 47 47l0 307c0 26-20 47-47 47z m-409-19l409 0c16 0 28-12 28-28l0-242-465 0 0 242c0 16 12 28 28 28z m409-363l-409 0c-16 0-28 12-28 28l0 46 465 0 0-46c0-16-12-28-28-28z m-130-61l0 24-18 0 0-28c0-2 0-4 1-6l26-31-166 0 25 31c1 2 2 4 2 6l0 28-19 0 0-24-23-30c-6-7-7-14-4-21 3-6 9-9 18-9l167 0c9 0 15 4 18 9 3 7 2 13-4 21z"/>
<glyph glyph-name="eye" unicode="&#35;" d="M511 260c-1 2-17 38-56 74-36 34-100 74-199 74-171 0-254-146-255-147-2-3-2-7 0-9 1-2 84-157 255-157 189 0 255 156 255 157 1 3 1 6 0 8z m-159 114c0-1 1-2 1-2 17-22 25-49 25-76 0-68-55-123-123-123-68 0-123 55-123 123 0 26 8 52 23 73 0 0 0 1 0 1 29 11 62 19 99 19 39 0 71-6 98-15z m-96-260c-143 0-221 117-235 142 9 15 44 65 106 100-8-19-13-39-13-60 0-79 63-142 142-142 79 0 142 63 142 142 0 24-5 45-16 65 70-34 103-90 110-105-10-23-76-142-236-142z m0 114c37 0 66 29 66 66 0 37-29 66-66 66-17 0-33-6-46-18-1-2-2-4-2-6 0-3 1-5 2-7l35-34c3-4 9-4 13 0 4 4 4 9 0 13l-27 27c8 3 16 6 25 6 27 0 47-21 47-47 0-27-20-47-47-47-27 0-47 20-47 47 0 6-4 9-10 9-6 0-9-3-9-9 0-37 29-66 66-66z"/>
<glyph glyph-name="globe" unicode="&#36;" d="M236 144c100 0 182 82 182 183 0 100-82 182-182 182-101 1-183-81-183-182 0-101 82-183 183-183z m0 347c90 0 163-74 163-164 0-89-73-163-163-163-90 0-164 73-164 163 0 91 74 164 164 164z m233-164c0 51-16 97-45 138l3 2c4 3 5 9 1 13-4 4-10 5-14 1l-22-19c-4-4-5-10-1-14 2-2 5-4 8-4 2 0 5 1 7 2l5 4c26-37 39-79 39-123 0-118-95-214-213-214-55 0-108 21-147 59l6 5c4 4 4 9 1 13-4 4-10 5-14 1l-25-21c-4-4-5-10-1-14 0 0 3-1 6-1 2 0 5 1 6 1l4 4c42-40 96-63 154-65l0-37c0-6 4-10 10-10 29 0 48-16 59-29l-119 0c6 8 15 17 28 23 5 1 7 7 5 12-2 5-8 7-13 5-32-15-45-45-46-45-1-3-1-7 1-10 2-3 5-5 7-5l155 0c3 0 7 2 9 5 2 3 2 7 0 10-1 1-25 47-77 53l0 27c124 6 223 108 223 233z"/>
<glyph glyph-name="ice-cream" unicode="&#37;" d="M416 316c0 37-22 69-53 84 1 6 2 12 2 18 0 52-42 94-94 94-47 0-87-36-93-82-46-6-82-46-82-93 0-26 10-51 29-68-1-4-1-9 0-14l16-49c3-10 12-17 20-21 0-1 0-1 0-2l83-169c3-7 10-12 17-12 6 0 13 5 17 12l82 169c0 1 0 1 1 2 9 4 16 12 19 21l16 49c1 2 1 4 1 6 13 15 19 34 19 55z m-145 177c42 0 75-33 75-75 0-4 0-7-1-11-7 2-15 3-23 3-20 0-40-7-57-19-7 10-17 20-28 26 0 1 0 1 0 2 0 19 15 34 34 34 6 0 10 4 10 10 0 5-4 9-10 9-26 0-49-20-52-45-7 2-14 3-22 4 6 35 37 62 74 62z m-156-156c0 40 33 74 75 74 40 0 75-33 75-74 0-20-8-38-21-53l-97 0c-4 0-7-1-10-1-14 14-22 33-22 54z m146-315l-77 158 154 0z m117 238l-16-50c-2-5-9-11-16-11l-171 0c-6 0-14 6-16 11l-16 50c-1 2-1 3 0 4 0 1 2 1 4 1l228 0c1 0 3 0 3 0 1-1 1-3 0-5z m-3 24l-108 0c11 16 16 34 16 53 0 13-3 25-8 37 13 11 30 17 47 17 41 0 75-34 75-75 0-13-3-25-8-35-4 2-9 3-14 3z m-229 43c6 0 9 4 9 10 0 19 16 34 35 34 5 0 9 4 9 9 0 6-4 10-9 10-30 0-53-24-53-53 0-6 4-10 9-10z m176 42c-11 0-21-4-31-11-4-2-5-9-2-13 2-3 5-4 8-4 2 0 4 1 5 2 6 5 13 7 20 7 6 0 10 4 10 9 0 5-4 10-10 10z"/>
<glyph glyph-name="glasses" unicode="&#38;" d="M506 241c-4 2-9 4-14 5-21 49-77 173-99 186-17 10-28 7-34 3-19-11-18-43-18-50 0-6 5-10 10-10 6 0 9 5 9 10-1 11 2 29 9 33 4 4 10 0 14-2 11-6 50-84 85-163-108 29-176-10-190-24-9-8-35-5-42-1-1 1-2 2-4 3-69 40-135 36-178 27 42 65 94 142 106 150 4 1 11 4 14 2 7-4 10-22 9-34 0-5 4-9 9-9 5 0 10 4 10 9 0 7 1 39-18 51-7 3-17 6-33-3-21-13-98-132-124-175-13-4-20-8-22-8-5-3-6-9-4-13 3-5 8-6 13-4 0 0 3 2 9 4 0 0 1-1 1-1 1 0 1-1 2-1-2-22-2-82 29-120 16-20 38-31 65-33 5 0 9-1 13-1 28 0 52 9 70 27 33 34 35 89 34 108 6-1 11-2 19-2 7 0 12 1 19 2-1-19 1-75 34-109 18-18 41-27 70-27 4 0 9 0 13 1 27 2 49 13 65 33 31 38 31 97 29 120 1 0 3 0 4 1 3-1 6-2 9-3 4-2 10 1 12 6 2 5 0 10-5 12z m-316-129c-16-16-39-23-68-21-21 2-40 10-52 27-34 40-25 114-25 114 0 1 0 2 0 3 37 11 104 20 174-18-1-2-1-3-1-5 0-1 6-66-28-100z m252 6c-12-16-31-25-52-27-29-3-52 5-68 21-34 34-28 99-28 100 0 2 0 4-1 5 14 12 78 44 174 16 0 0 0-1 0-1-1 0 8-74-25-114z m-89 111l-38-48c-3-4-3-10 2-13 2-1 3-2 5-2 3 0 6 1 8 4l38 47c3 4 3 11-2 13-4 3-9 3-13-1z m-256 0l-38-48c-3-4-3-10 2-13 2-1 3-2 5-2 3 0 6 1 8 4l38 47c3 4 3 11-2 13-4 3-9 3-13-1z"/>
<glyph glyph-name="hotel-sign" unicode="&#39;" d="M465 484l-172 0c-4 16-19 28-37 28-18 0-32-12-37-28l-172 0c-26 0-47-21-47-48l0-389c0-26 21-47 47-47l418 0c26 0 47 21 47 47l0 389c0 27-21 48-47 48z m-209 9c10 0 19-8 19-19 0-10-9-19-19-19-10 0-19 9-19 19 0 11 9 19 19 19z m-209-28l172 0c4-17 19-29 37-29 18 0 32 12 37 29l172 0c16 0 28-13 28-29l0-189-474 0 0 189c0 16 12 29 28 29z m418-446l-418 0c-16 0-28 12-28 28l0 181 474 0 0-181c0-16-12-28-28-28z m-332 152c-6 0-10-4-10-10l0-28-28 0 0 28c0 6-4 10-10 10-5 0-9-4-9-10l0-76c0-5 4-9 9-9 6 0 10 4 10 9l0 29 28 0 0-29c0-5 4-9 10-9 5 0 9 4 9 9l0 76c0 6-4 10-9 10z m227-19c6 0 10 3 10 9 0 6-4 10-10 10l-28 0c-6 0-10-4-10-10l0-76c0-5 4-9 10-9l28 0c6 0 10 4 10 9 0 6-4 10-10 10l-19 0 0 19 19 0c6 0 10 4 10 9 0 6-4 10-10 10l-19 0 0 19z m76-57l-19 0 0 66c0 6-4 10-9 10-6 0-10-4-10-10l0-76c0-5 4-9 10-9l28 0c6 0 10 4 10 9 0 6-4 10-10 10z m-142 76l-38 0c-6 0-9-4-9-10 0-6 3-9 9-9l9 0 0-67c0-5 4-9 10-9 6 0 9 4 9 9l0 67 10 0c6 0 9 3 9 9 0 6-3 10-9 10z m-95 0c-18 0-38-16-38-48 0-31 19-47 38-47 19 0 38 16 38 47 0 32-20 48-38 48z m0-76c-11 0-19 11-19 28 0 17 8 29 19 29 11 0 19-12 19-29 0-17-8-28-19-28z m27 265l15-5-10-13c-2-4-2-10 2-13 2-1 4-2 6-2 3 0 6 1 8 4l9 12 9-12c2-3 5-4 8-4 2 0 4 1 6 2 4 3 4 9 2 13l-10 13 15 5c5 2 8 8 6 13-2 4-8 7-12 5l-15-5 0 16c0 5-3 9-9 9-6 0-9-4-9-9l0-16-16 5c-4 2-10-1-12-5-1-6 1-12 7-13z m85-9l15-6-9-12c-3-4-2-11 2-13 1-1 3-2 5-2 3 0 6 1 8 3l9 13 10-13c2-2 5-3 7-3 2 0 4 1 6 2 4 2 5 9 2 13l-9 12 15 6c4 2 7 7 5 12-2 5-7 8-12 6l-14-6 0 16c0 6-4 10-10 10-5 0-9-4-9-10l0-16-15 6c-5 2-11-1-13-6-1-6 1-11 7-12z m85-19l15-6-9-12c-3-4-2-11 2-13 2-1 4-2 6-2 2 0 5 1 7 3l10 13 9-13c2-2 5-3 8-3 2 0 4 1 5 2 4 2 5 9 2 13l-9 12 15 6c5 2 8 7 6 12-2 5-8 8-13 6l-14-6 0 16c0 6-4 10-9 10-6 0-10-4-10-10l0-16-15 6c-5 2-10-1-12-6-1-6 1-11 6-12z m-341 0l15-6-9-12c-3-4-2-11 2-13 1-1 3-2 5-2 3 0 6 1 8 3l9 13 10-13c2-2 5-3 7-3 2 0 4 1 6 2 4 2 5 9 2 13l-9 12 15 6c4 2 7 7 5 12-2 5-7 8-12 6l-14-6 0 16c0 6-4 10-10 10-5 0-9-4-9-10l0-16-15 6c-5 2-11-1-13-6-1-6 1-11 7-12z m85 19l15-6-9-12c-3-4-2-11 2-13 2-1 4-2 6-2 2 0 5 1 7 3l10 13 9-13c2-2 5-3 8-3 2 0 4 1 5 2 4 2 5 9 2 13l-9 12 15 6c5 2 8 7 6 12-2 5-8 8-13 6l-14-6 0 16c0 6-4 10-9 10-6 0-10-4-10-10l0-16-15 6c-5 2-10-1-12-6-1-6 1-11 6-12z"/>
<glyph glyph-name="hotel" unicode="&#40;" d="M465 389l-67 0 0 76 82 0-13-13c-3-4-3-9 0-13 2-2 4-3 7-3 3 0 5 1 7 3l28 28c1 1 2 2 2 3 1 2 1 5 0 8-1 1-1 2-2 3l-28 28c-4 4-10 4-14 0-3-4-3-9 0-13l13-12-461 0 0 19c0 5-4 9-10 9-5 0-9-4-9-9l0-57c0-6 4-10 9-10 6 0 10 4 10 10l0 19 114 0 0-114c0-6 4-10 9-10 6 0 10 4 10 10l0 19 199 0c6 0 9 4 9 9 0 6-3 10-9 10l-199 0 0 76 227 0 0-114c0-6 4-10 10-10 5 0 9 4 9 10l0 19 67 0c16 0 28-13 28-29l0-294c0-16-12-28-28-28l-399 0c-16 0-28 12-28 28l0 294c0 16 12 29 28 29l38 0c6 0 10 4 10 9 0 6-4 10-10 10l-38 0c-26 0-47-21-47-48l0-294c0-26 21-47 47-47l399 0c26 0 47 21 47 47l0 294c0 27-21 48-47 48z m-323-133c-5 0-9-4-9-9l0-29-29 0 0 29c0 5-3 9-9 9-6 0-10-4-10-9l0-76c0-6 4-10 10-10 6 0 9 4 9 10l0 28 29 0 0-28c0-6 4-10 9-10 6 0 10 4 10 10l0 76c0 5-4 9-10 9z m228-19c5 0 9 4 9 10 0 5-4 9-9 9l-29 0c-5 0-9-4-9-9l0-76c0-6 4-10 9-10l29 0c5 0 9 4 9 10 0 5-4 9-9 9l-19 0 0 19 19 0c5 0 9 4 9 10 0 5-4 9-9 9l-19 0 0 19z m47 19c-6 0-9-4-9-9l0-76c0-6 3-10 9-10l29 0c5 0 9 4 9 10 0 5-4 9-9 9l-19 0 0 67c0 5-4 9-10 9z m-114 0l-38 0c-5 0-9-4-9-9 0-6 4-10 9-10l10 0 0-66c0-6 4-10 9-10 6 0 10 4 10 10l0 66 9 0c6 0 10 4 10 10 0 5-4 9-10 9z m-56-47c0 32-20 47-38 47-18 0-38-15-38-47 0-32 19-48 38-48 19 0 38 16 38 48z m-57 0c0 17 7 28 19 28 11 0 19-11 19-28 0-17-8-29-19-29-12 0-19 12-19 29z m-105-105c0-5 4-9 10-9l133 0c5 0 9 4 9 9 0 6-4 10-9 10l-133 0c-6 0-10-4-10-10z m180-9l10 0c6 0 9 4 9 9 0 6-3 10-9 10l-10 0c-5 0-9-4-9-10 0-5 4-9 9-9z m38 9c0-5 4-9 10-9l133 0c5 0 9 4 9 9 0 6-4 10-9 10l-133 0c-6 0-10-4-10-10z"/>
<glyph glyph-name="food-to-go" unicode="&#41;" d="M487 288c-10 3-21-4-28-18-11-24-22-37-42-48-1 1-3 2-4 2-3 1-9 2-16-2-9-6-38-22-57-26 0 0 0 0-1 0-4 6-10 8-14 8-1 0-1 0-2 0-7-1-14-1-17-1l15 161 11 0c6 0 9 4 9 10 0 1 0 1-1 2l-9 65c0 6-4 9-9 9l-30 0-6 31c-1 4-4 7-9 7l-213 0c-5 0-9-3-10-7l-5-31-30 0c-5 0-9-3-10-8l-9-67c0-2 0-5 2-7 2-2 5-3 7-3l11 0 26-276c0-12 10-23 22-26l8-32c1-4 5-7 9-7l171 0c5 0 9 0 14 0 33 0 64 5 91 16 4 1 11 5 13 16 1 0 2 0 4 1 37 19 67 44 86 73 0 0 0 1 1 1 0 1 2 6 1 15 1 1 2 2 3 4 27 45 39 77 39 95-1 35-15 42-21 43z m-438-37l57 0c4 0 7 2 9 5 9 15 22 24 37 24 14 0 28-9 37-24 2-3 4-5 8-5l95 0-7-66-88 0c-4 0-6-2-8-5-9-15-21-24-37-24-15 0-29 9-37 24-2 3-5 5-9 5l-50 0z m22 218l198 0 4-19-205 0z m-44-38l287 0 6-47-299 0z m275-66l-8-95-91 0c-12 18-31 29-50 29-19 0-38-11-51-29l-55 0-8 95z m-244-199l43 0c13-18 32-29 51-29 21 0 39 11 51 29l81 0-6-75c-2-6-7-10-13-10l-189 0c-6 0-11 4-12 10z m30-104l165 0-5-19-155 0z m267-5c-26-11-55-15-87-15l5 21c11 2 21 14 23 26l8 96c3 0 10 0 20 1 1 0 2-1 2-3 0-2 2-8 4-15 7-24 26-96 25-106 0-2 0-4 0-5z m18 19c-3 17-11 46-24 97-1 2-1 4-2 6 19 4 43 17 61 27 0 0 1-1 1-1 0-1 1-1 1-2 1-2 25-42 35-54 3-6 3-10 3-11-18-23-44-45-75-62z m82 89c-7 10-21 31-26 42 22 13 36 28 47 55 3 6 7 7 7 7 1-1 5-6 5-24 0-10-5-32-33-80z"/>
<glyph glyph-name="flippers" unicode="&#42;" d="M233 416l-1 5c-1 4-3 7-7 8-22 2-50-12-70-36-14-18-48-31-73-27-5 1-12 1-18 1-37 0-60-20-61-21-3-3-4-8-2-11l164-306c10-19 32-31 54-31 7 0 12 1 18 3l9 3c26 9 44 39 39 66z m7-393l-9-3c-3-1-7-2-12-2-15 0-30 9-38 21l-159 298c7 4 23 11 42 11 5 0 10 0 16-1 32-5 72 10 91 33 13 16 30 28 44 30l53-342c3-18-10-39-28-45z m-43 138c-3 0-5 0-8-1-12-4-19-14-21-29-2-13-1-30 5-45 10-29 30-50 50-50 3 0 6 1 8 1 12 4 19 14 21 29 2 14 1 30-5 45-10 29-30 50-50 50z m36-92c-1-7-4-13-8-15-9-3-26 11-34 37-4 12-6 26-4 35 1 8 5 13 8 15 1 0 2 0 3 0 10 0 24-14 32-38 4-11 5-24 3-34z m-135 239c-2 5-8 7-13 5-4-2-6-8-3-12l57-117c2-4 5-6 9-6 1 0 3 0 4 1 4 2 6 8 3 13z m111-107c1 0 1 0 1 0 5 1 9 6 8 11l-25 129c-1 5-5 9-11 8-5-1-8-6-8-11l25-129c1-5 5-8 10-8z m292 301c-19 10-52 5-77-11-10-6-23-8-38-8-15 0-29 3-40 9-17 10-37 15-57 15-16 0-26-3-27-4-5 0-8-5-8-10l52-345c4-28 31-51 59-51l10 0c28 0 55 21 60 48l70 342 1 5c0 4-3 8-5 10z m-85-353c-4-18-22-33-41-33l-9 0c-19 1-37 17-40 35l-51 336c4 1 8 1 14 1 17 0 33-3 48-12 14-8 31-12 49-12 18 0 35 4 47 11 17 10 38 15 52 11z m-43 113c-22 0-40-28-41-64-1-37 16-65 38-65 0 0 1 0 1 0 22 0 40 26 40 63 1 37-15 66-38 66z m-3-112c-9 0-20 18-19 46 1 29 13 46 22 46 8 0 20-18 19-47-1-27-13-44-22-45z m-26 138c0 0 1 0 1 0 5 1 9 6 9 11l-19 133c-1 5-6 9-11 9-4-1-8-6-8-11l19-133c1-5 4-9 9-9z m88 155c-4 1-10-3-11-8l-26-141c-1-5 3-11 8-11 1 0 1 0 2 0 5 0 8 2 9 7l26 141c1 6-2 11-8 12z"/>
<glyph glyph-name="hostel" unicode="&#43;" d="M109 237c-28 0-52-24-52-52 0-29 24-52 52-52 28 0 52 23 52 52 0 28-24 52-52 52z m0-85c-18 0-33 15-33 33 0 18 15 33 33 33 18 0 33-15 33-33 0-18-15-33-33-33z m0 227c28 0 52 24 52 52 0 29-24 53-52 53-28 0-52-24-52-53 0-28 24-52 52-52z m0 86c18 0 33-16 33-34 0-18-15-33-33-33-18 0-33 15-33 33 0 18 15 34 33 34z m394 9c-6 0-10-4-10-9l0-97c-3 1-6 2-9 2l-29 0 0 28c0 19-13 37-32 43-51 16-102 24-148 24-24 0-47-2-70-6-19-4-34-22-34-42l0-47-143 0c-3 0-6-1-9-2l0 125c0 6-4 10-10 10-5 0-9-4-9-10l0-465c0-10 9-19 19-19l9 0c9 0 18 5 23 13l11 16 380 0 19-19c5-6 15-10 23-10l9 0c10 0 19 9 19 19l0 437c0 5-4 9-9 9z m-313-57c0 11 8 21 19 23 21 4 44 6 66 6 47 0 96-9 143-23 11-3 19-15 19-25 0-12 0-25 0-38 0-10-8-19-19-19-69 0-139 0-208 0-11 0-19 9-19 19-1 19-1 38-1 57z m-162-66l144 0c3-16 19-29 36-29l208 0c21 0 38 17 38 38l0-9 29 0c5 0 9-4 9-10l0-28c0-6-4-10-9-10l-455 0c-5 0-9 4-9 10l0 28c0 6 4 10 9 10z m395-157c-51 16-102 24-148 24-24 0-47-2-70-6-19-3-34-21-34-41l0-48-143 0c-3 0-6-1-9-2l0 165c3-1 6-2 9-2l456 0c3 0 6 1 9 2l0-165c-3 1-6 2-9 2l-29 0 0 29c0 19-13 37-32 42z m13-42c0-13 0-26 0-38 0-11-8-19-19-19-69 0-139 0-208 0-11 0-19 8-19 19 0 19 0 38 0 57 0 10 8 21 19 22 21 4 44 6 66 6 47 0 96-8 143-23 10-2 18-14 18-24z m57-124l-9 0c-3 0-8 2-10 4l-22 22c-1 1-2 2-3 2-1 1-2 1-3 1l-389 0c0 0-1 0-1 0-1 0-1 0-2 0-1 0-1 0-2-1-1 0-1-1-2-1-1 0-1-1-1-1 0 0 0 0-1-1l-13-21c-1-2-5-4-7-4l-9 0 0 67c0 6 4 9 9 9l144 0c3-16 19-28 36-28l208 0c21 0 38 17 38 38l0-10 29 0c5 0 9-3 9-9l0-67z"/>
<glyph glyph-name="home-on-the-water" unicode="&#44;" d="M503 38c-18 0-28-6-37-11-7-4-13-8-25-8-12 0-19 4-26 8-8 5-18 11-36 11-18 0-27-6-36-11-7-4-13-8-25-8-13 0-19 4-26 8-9 5-18 11-36 11-18 0-27-6-36-11-8-4-13-8-26-8-12 0-19 4-25 8-9 5-18 11-36 11-18 0-28-6-36-11-8-4-14-8-26-8-12 0-19 4-25 8-9 5-19 11-37 11-5 0-9-4-9-10 0-5 4-9 9-9 13 0 19-4 26-9 9-4 18-10 36-10 18 0 28 6 36 10 7 5 13 9 26 9 12 0 19-4 25-9 9-4 18-10 36-10 18 0 28 6 36 10 7 5 13 9 26 9 12 0 19-4 26-9 8-4 18-10 36-10 18 0 27 6 36 10 6 5 12 9 25 9 13 0 19-4 26-9 8-4 18-10 36-10 18 0 27 6 36 10 7 5 13 9 26 9 5 0 9 4 9 9 0 6-4 10-9 10z m-494 38c13 0 19-4 26-9 9-4 18-10 36-10 18 0 28 6 36 10 7 5 13 9 26 9 12 0 19-4 25-9 9-4 18-10 36-10 18 0 28 6 36 10 7 5 13 9 26 9 12 0 19-4 26-9 8-4 18-10 36-10 18 0 27 6 36 10 6 5 12 9 25 9 13 0 19-4 26-9 8-4 18-10 36-10 18 0 27 6 36 10 7 5 13 9 26 9 5 0 9 4 9 9 0 6-4 10-9 10-18 0-28-6-37-11-7-4-13-8-25-8-12 0-19 4-26 8-6 4-14 9-26 11l0 38 28 0c16 0 29 12 29 28l0 57c0 16-13 29-29 29l0 113 32-25c2-1 4-2 6-2 3 0 6 1 8 4 3 3 3 10-1 13l-185 148c-12 9-30 9-42 0l-184-149c-4-3-5-10-1-13 3-4 10-5 14-1l31 25 0-113c-16 0-29-13-29-29l0-57c0-16 13-28 29-28l28 0 0-39c-12-2-20-6-26-11-8-3-14-7-26-7-12 0-19 4-25 8-9 5-19 11-37 11-5 0-9-4-9-10 0-5 4-9 9-9z m104 299l134 109c5 3 14 3 18 0l135-109c-1-2-2-3-2-5l0-123-76 0 0 94c0 16-12 29-28 29l-76 0c-16 0-28-13-28-29l0-94-76 0 0 123c0 2-1 3-1 5z m96-128l0 94c0 6 3 10 9 10l76 0c6 0 9-4 9-10l0-94z m-124-86l0 57c0 6 4 10 10 10l322 0c6 0 10-4 10-10l0-57c0-6-4-9-10-9l-322 0c-6 0-10 3-10 9z m285-28l0-39c-13-2-20-6-27-11-7-4-13-8-25-8-13 0-19 4-26 8-9 6-18 12-36 12-18 0-27-6-36-11-8-4-13-8-26-8-12 0-19 4-25 8-7 4-14 9-27 11l0 38z m-228 28c6 0 10 4 10 10l0 38c0 5-4 9-10 9-5 0-9-4-9-9l0-38c0-6 4-10 9-10z m76 0c6 0 10 4 10 10l0 38c0 5-4 9-10 9-6 0-9-4-9-9l0-38c0-6 3-10 9-10z m76 0c6 0 9 4 9 10l0 38c0 5-3 9-9 9-6 0-10-4-10-9l0-38c0-6 4-10 10-10z m76 0c5 0 9 4 9 10l0 38c0 5-4 9-9 9-6 0-10-4-10-9l0-38c0-6 4-10 10-10z"/>
<glyph glyph-name="flip-flops" unicode="&#45;" d="M393 509c-28 3-52-8-71-32-27-34-39-91-27-139 11-47 2-114-6-164-2-16-4-30-5-40-1-16 5-33 18-47 15-16 37-25 61-25 9 0 17 1 26 3 59 19 115 224 118 299 5 104-73 140-114 145z m-11-426c-24-7-51 0-67 18-6 6-13 17-13 31 1 9 3 23 5 40 7 51 17 120 5 171-10 41 1 93 24 123 9 11 24 24 46 24 2 0 4 0 7 0 37-4 103-35 99-125-3-83-63-268-106-282z m-139 40c-12 49-28 115-21 163 7 47-9 99-37 131-21 25-48 35-76 30-41-9-115-52-100-155 10-74 85-273 146-286 5-1 11-2 18-2 24 0 49 11 64 29 12 15 18 32 15 50-2 11-5 24-9 40z m-20-77c-12-15-31-23-50-23-5 0-10 1-14 2-43 9-120 187-132 269-12 90 51 127 87 135 4 1 7 1 11 1 21 0 37-14 47-24 24-29 38-76 32-116-1-9-2-19-2-29-5 46-24 81-56 99-1 0-1 0-2 1-11 4-20 14-23 19 0 1 0 1-1 2 0 2-1 2-1 4 0 5-4 6-9 6-5 0-9-1-9-6-1-4 0-6 1-10 3-11 4-25-24-51-18-16-29-45-27-79 2-44 20-84 48-106 2-1 3-2 5-2 3 0 6 1 8 4 3 4 3 11-2 13-23 19-39 55-41 92-1 28 7 52 21 65 19 17 28 30 30 43 5-4 11-7 17-9 56-31 48-117 42-152-1-2-1-3-1-5 1-5 6-9 11-9 4 1 7 5 8 9l0 2c3 19 5 36 5 52 3-41 13-86 22-121 4-16 6-29 8-39 3-15-1-27-9-37z m212 356c-27 19-34 29-36 38 1 7 0 11 0 14-1 4-6 7-10 6-5-1-9-5-9-9l0-2c0-3 0-6 0-10-1-5-2-10-3-14-75-21-59-140-48-191l0-2c1-4 5-8 9-8 6 0 10 4 10 9 0 1 0 2-1 5-8 36-27 154 39 169 3 1 5 3 7 5 6-7 17-16 32-27 41-28 37-105-9-176-3-5-2-11 3-14 2-1 4-2 5-2 3 0 6 2 7 5 54 83 55 169 4 204z"/>
<glyph glyph-name="flashlight" unicode="&#46;" d="M152 156c-11 11-30 11-40 0l-14-14c-12-11-12-29 0-40 5-5 12-8 20-8 7 0 15 3 19 8l14 14c11 11 11 29 1 40z m-15-27l-13-13c-4-4-9-4-13 0-4 3-4 9 0 13l13 13c2 2 4 3 7 3 3 0 5-1 6-3 4-4 4-9 0-13z m162 362c-6 6-12 7-16 7-6 0-15-5-17-18l-15-117c-1-8 1-18 5-26-4-1-8-4-11-7l-235-234c-11-12-11-30 0-40l40-40c6-6 13-8 20-8 8 0 15 2 20 8l234 234c3 3 6 8 7 12 7-3 14-5 22-5 2 0 3 0 4 0l117 15c9 1 15 6 17 12 2 7 0 15-6 20z m-181-422l-54 54 100 101 54-54z m-40-41c-4-3-10-3-14 0l-39 40c-4 4-4 10 0 14l26 26 54-54z m234 236l-81-81-54 54 81 81c2 2 4 2 7 2 2 0 4 0 6-2l40-40c5-5 5-11 1-14z m45 11c-8-1-19 3-25 8l-53 54c-6 5-10 17-9 24l15 117 188-188z m15 173c0 0 1 0 1 0 4 0 8 4 9 9l6 42c1 4-3 9-9 10-4 1-10-3-10-8l-6-42c-1-5 3-10 9-11z m124-55l-45-7c-4-1-8-6-8-11 1-4 5-8 9-8 0 0 1 0 1 0l45 7c5 1 8 5 8 10 0 6-4 9-10 9z m-84 15c3 0 5 1 7 3l33 33c4 4 4 9 0 13-4 4-9 4-13 0l-33-33c-4-4-4-10 0-13 2-2 5-3 6-3z"/>
<glyph glyph-name="hat-glasses" unicode="&#47;" d="M478 144c-115 45-190 3-203-10-7-7-29-5-36-2-1 1-2 3-4 3-102 58-197 10-202 8-5-3-6-8-4-12 3-5 9-7 13-4 0 0 3 2 8 4-1-17-2-63 24-92 15-17 35-27 62-27 1 0 1 0 2 0 72 0 97 61 101 100 5-1 10-2 16-2 6 0 11 1 16 2 4-39 29-101 101-101 1 0 2 0 3 0 26 1 47 10 61 27 25 29 25 73 24 91 3-1 6-2 9-4 5-2 11 1 13 6 3 6 1 11-4 13z m-339-114c-1 0-2 0-2 0-20 0-36 8-47 20-26 31-19 84-19 85 0 1 0 1 0 2 33 9 91 17 151-17-1-3-5-90-83-90z m284 20c-12-13-28-20-48-20-80-2-84 87-84 90 0 0 0 0 0 1 11 8 64 38 151 15 0 0 0-1 0-1 0 0 6-54-19-85z m10 319c-4 2-10-1-12-6-2-5 1-10 6-12 41-16 66-37 66-58 0-41-95-84-237-84-142 0-237 43-237 84 0 22 26 44 71 60 5 2 8 7 6 12-2 5-8 8-13 6-54-20-83-48-83-78 0-58 113-103 256-103 143 0 256 45 256 103 0 29-27 56-79 76z m-177-94c122 0 146 27 150 32 1 2 2 4 2 6-11 114-71 190-152 190-81 0-141-76-152-189 0-2 0-5 2-6 4-6 28-33 150-33z m0 19c-95 0-125 17-133 23 2 14 4 27 7 40 16-9 54-24 125-24 72 0 111 15 126 23 3-13 5-25 7-38-8-7-38-24-132-24z m0 190c55 0 100-43 120-110-7-5-42-23-120-23-77 0-112 20-119 24 20 67 65 109 119 109z"/>
<glyph glyph-name="hanger" unicode="&#58;" d="M490 254l-166 87c-10 6-28 10-40 10l-19 0 0 33 33 45c0 0 1 1 1 1l0 0c5 9 8 18 8 28 0 27-22 49-49 49-28 0-49-22-49-49 0-6 3-10 9-10 6 0 10 4 10 10 0 17 13 30 30 30 17 0 30-13 30-30 0-7-2-12-5-17 0 0-1-1-1-1l-35-47c0-2 0-4 0-6l0-36-19 0c-13 0-30-5-40-10l-166-87c-13-7-22-22-22-36l0-19c0-16 12-28 28-28l57 0 0-143c0-16 13-28 29-28l284 0c16 0 29 12 29 28l0 143 57 0c16 0 28 12 28 28l0 19c0 14-9 29-22 36z m-82-226c0-5-4-9-10-9l-237 0 0 85c0 6-4 10-9 10-6 0-10-4-10-10l0-85-28 0c-6 0-10 4-10 9l0 171c0 6 4 10 10 10l284 0c6 0 10-4 10-10z m85 171c0-6-4-9-9-9l-57 0 0 9c0 16-13 29-29 29l-284 0c-16 0-29-13-29-29l0-9-57 0c-5 0-9 3-9 9l0 19c0 7 6 16 11 19l166 86c8 4 23 8 32 8l56 0c9 0 24-4 32-8l166-86c5-3 11-12 11-19z"/>
<glyph glyph-name="flag" unicode="&#59;" d="M413 260c-3 5-3 15 0 20l54 81c5 8 6 15 2 21-3 5-10 9-18 9l-139 0 0 56c0 16-12 28-28 28l-223 0 0 18c0 6-4 10-10 10-5 0-9-4-9-10l0-484c0-5 4-9 9-9 6 0 10 4 10 9l0 205 186 0c5 0 9 4 9 9 0 6-4 10-9 10l-186 0 0 223 223 0c6 0 9-4 9-9l0-214c0-8-5-18-11-23l-45-33c-10-8-9-15-8-19 1-3 5-9 18-9l204 0c9 0 15 4 19 9 3 6 3 13-2 21z m38-92l-195 0 37 27c10 9 19 25 19 38l0 139 139 0c0 0 1 0 1 0 0 0 0-1-1-1l-53-81c-8-11-8-29 0-41l53-81c0 0 0 0 1 0 0 0-1 0-1 0z"/>
<glyph glyph-name="fish" unicode="&#60;" d="M321 93c6 0 9 4 9 9 0 6-3 10-9 10-14 0-21-7-28-11-4-5-8-8-16-8-7 0-11 3-15 8-6 5-13 11-28 11-14 0-22-7-28-11-5-5-8-8-15-8-8 0-10 3-16 8-6 5-13 11-28 11-14 0-21-7-28-11-4-5-8-8-16-8-7 0-10 3-15 8-6 4-14 11-27 11-6 0-10-4-10-10 0-5 4-9 10-9 7 0 10-3 15-7 6-6 13-12 28-12 14 0 22 7 28 12 5 4 9 7 16 7 7 0 10-3 16-7 5-6 13-12 28-12 14 0 21 7 28 12 4 4 8 7 16 7 7 0 11-3 15-7 6-6 13-12 28-12 14 0 22 7 28 12 3 4 7 7 14 7z m177-81c-2 8-9 45-16 61-12 28-25 47-33 56 1 3 2 6 2 9 12 38 24 82 14 138l0 13c1 2 10 6 13 8 9 4 16 7 14 17 0 4-1 8-45 25l-2 2c-6 12-11 24-19 36-12 20-55 49-72 60l15 55c1 4 0 8-3 10-3 3-7 3-9 2-36-14-46-23-61-36-1-3-3-3-4-4-52 14-107 14-158 1-75-18-118-48-120-50-2-2-4-4-4-6 0-3 1-6 3-8 1-1 4-3 12-8 7-5 20-14 23-17 0-1 1-1 1-1-2-2-7-3-13-3-3 0-7-2-9-6-1-4 0-9 4-11 14-10 42-20 65-29 14-6 26-10 31-12 6-4 40-24 68-27 2-3 4-5 6-7 5-5 8-11 21-21 1-2 5-3 8-2 3 1 6 3 6 6l5 12c1 0 1 0 2 0 51-8 61-11 87-30-2-12-5-24-7-26-3-3-4-9-1-12 3-4 8-6 11-4 7 3 15 6 23 7 5 2 9 3 13 4l1-1c26-31 36-63 32-80-2-6-24-23-32-30-3-2-6-4-8-5-5-5-21-19-36-33-33-30-32-31-30-37 2-5 8-8 13-6 6 3 28 14 51 26 23 13 47 24 53 27 1 0 1 1 2 1 4 0 11-4 20-16 14-20 47-55 48-57 2-2 5-2 7-2 5 0 9 4 9 8 0 1 0 1-1 3z m-48 58c-12 17-24 25-35 25-4 0-6-1-10-2-7-4-28-14-49-25 7 6 14 13 17 16 2 2 5 4 8 5 19 15 36 28 39 40 5 21-4 60-36 97 0 0-1 1-1 1l-7 6c-3 3-7 3-11 1-1 0-1-1-2-2-3-1-8-3-12-4-2-1-4-1-6-2 1 5 2 10 3 16l1 4c1 3-1 7-4 9-31 25-42 29-100 37-2 0-4 0-7 0-1 0-2 0-3 0-5 1-9-2-11-5l-2-6c-3 4-5 7-7 9-3 3-5 7-8 12-2 1-4 2-6 2-9 1-21 5-33 10 5 2 10 3 14 7 31 23 39 73 40 75 0 4-3 10-8 10-5 1-10-3-10-8 0 0-7-44-32-62-8-6-17-8-28-6-2 0-3 0-4-1-1 0-1 1-2 1-6 3-18 8-34 14-15 4-30 10-43 16 1 1 2 3 4 5 3 4 5 11-1 20-2 4-6 8-28 23 17 10 52 28 103 40 50 12 103 11 152-4 3-1 7 0 9 2 3 3 5 5 8 7 11 10 19 16 37 25l-12-45c-1-5 1-9 5-11 6-3 60-38 71-56 7-13 13-25 18-37 1-2 2-3 3-4l6-4c1-1 2-1 2-1 8-3 18-7 26-10-9-5-17-10-19-19 0-1 0-1 0-1l0-15c0-1 0-1 0-2 10-53-1-92-12-131-1-4-3-9-4-14-1-3 0-7 3-9 0 0 17-14 33-54 2-5 4-15 7-24-8 10-18 20-22 29z m-340 349c-1 0-1 0 0 0-6 0-9-4-9-9 0-6 3-10 9-10 2 0 5-1 6-1 1-3 5-6 10-6 0 0 1 0 1 0 4 1 8 5 8 10-3 11-15 16-25 16z"/>
<glyph glyph-name="handwheel" unicode="&#61;" d="M503 261l-38 0c-1 49-22 94-53 128l27 27c4 4 4 9 0 13-3 4-9 4-13 0l-27-27c-35 32-80 51-129 54l0 37c0 6-4 10-9 10-6 0-10-4-10-10l0-37c-49-2-94-22-128-53l-27 27c-4 4-9 4-13 0-4-4-4-9 0-13l27-27c-32-35-51-80-54-129l-37 0c-6 0-10-4-10-10 0-5 4-9 10-9l37 0c2-49 22-94 53-128l-27-27c-4-4-4-10 0-13 2-2 5-3 6-3 3 0 5 1 7 3l27 27c34-32 79-52 128-54l0-37c0-5 4-9 10-9 5 0 9 4 9 9l0 37c49 2 94 23 129 54l26-27c2-2 5-3 7-3 3 0 5 1 7 3 3 3 3 9 0 13l-27 27c31 34 51 79 53 128l37 0c5 0 9 4 9 9 0 6-2 10-7 10z m-242-196c-103 0-187 84-187 186 0 103 84 187 187 187 102 0 186-84 186-187 0-102-84-186-186-186z m118 305c-31 30-73 49-118 49-46 0-88-19-119-49-30-31-49-73-49-119 0-45 19-87 49-118 31-31 73-49 119-49 45 0 87 18 118 48 31 32 49 74 49 119 0 46-18 88-49 119z m-7-217l-53 53c9 10 13 22 15 36l75 0c-2-34-15-65-37-89z m-259 89l74 0c2-14 8-26 15-36l-53-53c-21 24-34 55-36 89z m36 108l53-53c-8-10-13-22-15-36l-74 0c2 34 15 65 36 89z m112-155c-31 0-56 26-56 56 0 31 25 56 56 56 30 0 56-25 56-56 0-30-26-56-56-56z m45 115c-10 8-22 13-36 15l0 74c34-2 65-15 89-37z m-55 15c-14-2-26-8-36-15l-53 53c24 21 55 34 89 37z m-36-132c10-9 22-13 36-15l0-75c-34 2-65 16-89 38z m55-15c14 2 26 7 36 15l53-53c-24-22-55-35-89-38z m64 83c-2 14-7 26-15 36l53 53c22-24 35-55 38-89z m-55-10c0-10-8-18-18-18-11 0-19 8-19 18 0 11 8 19 19 19 10 0 18-8 18-19z"/>
<glyph glyph-name="hand" unicode="&#62;" d="M446 313c-12 0-21-4-30-11-4 22-23 39-46 39-13 0-26-5-34-15-9 14-24 25-42 25-11 0-21-4-29-10l0 124c0 26-20 47-47 47-26 0-47-21-47-47l0-263-70 63c-19 18-49 18-65 2-16-16-17-46-1-66l86-111c14-17 36-43 52-58l2-3c17-17 49-29 72-29l47 0c0 0 1 0 1 0 1 0 1 0 2 0 1 0 1 0 2 1 1 0 1 1 2 1 0 0 1 1 1 1 0 1 0 1 0 2 0 1 0 1 1 2 0 0 0 1 0 1 0 0 5 30 25 30 23 0 23-27 23-29 0-6 4-10 9-10l62 0c39 0 71 34 71 76l0 190c0 27-21 48-47 48z m28-237c0-31-24-57-52-57l-53 0c-3 17-13 39-42 39-25 0-37-22-42-39l-38 0c-18 0-45 11-58 24l-3 3c-14 14-37 39-49 55l-88 112c-9 13-10 32 0 41 10 10 28 9 39-2l83-76 0-5c0-6 3-10 9-10 6 0 10 4 10 10l0 294c0 16 12 28 28 28 16 0 29-12 29-28l0-218c0-6 3-10 9-10 6 0 9 4 9 10l0 56c0 17 13 29 29 29 16 0 28-12 28-29l0-66c0-6 4-9 10-9 6 0 9 3 9 9l0 57c0 16 13 28 29 28 16 0 28-12 28-28l0-66c0-6 4-10 10-10 5 0 9 4 9 10l0 37c0 17 13 29 29 29 16 0 28-12 28-29z"/>
<glyph glyph-name="fireplace" unicode="&#63;" d="M484 512l-456 0c-16 0-28-12-28-28l0-48c0-16 12-28 28-28l456 0c16 0 28 12 28 28l0 48c0 16-12 28-28 28z m9-76c0-6-4-9-9-9l-456 0c-5 0-9 3-9 9l0 48c0 5 4 9 9 9l456 0c5 0 9-4 9-9z m-169-239c-2 3-4 5-8 5-4 0-7-3-9-6 0 0-5-11-12-24 0 2-1 6-2 9-10 50-46 68-53 70-3 1-7 0-9-2-2-2-3-5-2-8 0-2 0-5 1-8 4-10 10-27-3-47-7-11-11-20-13-28-11 9-24 15-32 16-4 0-8-2-9-5-2-3-2-8 1-11 4-6 3-12 1-24-2-14-6-30 3-51 14-32 47-37 60-37 0 0 0 0 1 0 5 0 9 3 9 8 0 6-3 10-8 10-12 1-34 6-44 28-6 15-4 27-2 39 1 6 3 12 3 19 8-5 15-12 16-19 0-4 3-7 7-8 4-1 8 0 10 3 3 4 3 8 2 12-1 8-1 21 11 40 11 17 12 32 11 45 9-9 17-22 21-42 4-18 2-26 1-33 0-2 0-3-1-4-1-4 2-8 6-9 3-2 8-1 11 2 10 12 18 26 24 37 2-5 4-13 5-23 1-3 12-67-48-81-5-1-8-6-8-11 1-5 7-9 12-8 62 14 68 73 62 103-3 21-7 30-15 43z m179-178l-29 0 0 360c0 6-4 10-9 10-6 0-10-4-10-10l0-360-38 0 0 265c0 15-10 31-24 36-89 31-185 31-274 0-14-5-24-21-24-36l0-265-38 0 0 360c0 6-4 10-10 10-5 0-9-4-9-10l0-360-29 0c-5 0-9-4-9-10 0-5 4-9 9-9l494 0c5 0 9 4 9 9 0 6-4 10-9 10z m-389 265c0 7 5 16 12 18 84 30 176 30 261 0 6-2 12-11 12-18l0-265-285 0z"/>
<glyph glyph-name="filling-station" unicode="&#64;" d="M500 30l-5 12c-3 10-14 19-25 21 0 1 0 1 0 2l0 391c0 26-20 47-46 47l-205 0c-26 0-47-21-47-47l0-205-23 0c-23 0-42-25-42-56l0-130c0-20-17-37-37-37-21 0-37 17-37 37l0 168 28 0c5 0 9 3 9 9l0 37c0 4-2 7-6 9l-31 15 0 10 63 71c4 4 3 10-1 13-4 4-9 3-13 0l-65-75c0 0 0-1-1-1 0-1-1-1-1-2 0-1 0-1 0-2 0 0 0 0 0 0l0-252c0-31 25-56 56-56 30 0 56 25 56 56l0 130c0 20 11 38 23 38l22 0 0-168c0-1 0-1 0-2-11-2-21-11-25-21l-5-12c-2-8-2-15 2-21 4-5 11-9 19-9l316 0c9 0 15 4 19 9 4 6 5 13 2 21z m-449 244l0-23-18 0 0 32z m140 24l260 0 0-233-260 0z m28 186l205 0c15 0 27-12 27-28l0-139-260 0 0 139c0 16 12 28 28 28z m264-464c0-1-2-1-4-1l-316 0c-2 0-3 1-4 1 0 0 0 1 0 3l5 12c3 6 10 12 17 12l279 0c6 0 15-6 17-12l4-12c2-2 2-3 2-3z m-69 213l-37 0c-6 0-9-4-9-10l0-83c0-6 3-10 9-10l37 0c6 0 10 4 10 10l0 83c0 6-4 10-10 10z m-9-84l-19 0 0 65 19 0z"/>
<glyph glyph-name="hair-dryer" unicode="&#91;" d="M289 411c-5 2-10 0-12-4-8-16-12-33-12-51 0-15 3-30 8-43 1-4 5-7 9-7 1 0 1 0 2 1 5 2 8 8 6 13-4 11-6 23-6 36 0 15 3 29 10 43 2 5 0 11-5 12z m100-112c31 0 57 25 57 57 0 31-26 56-57 56-32 0-57-25-57-56 0-32 25-57 57-57z m0 94c21 0 38-17 38-37 0-21-17-38-38-38-21 0-38 17-38 38 0 20 17 37 38 37z m-259 27l-24 11c-4 2-7 3-11 3-11 0-19-9-19-22l0-113c0-13 8-22 20-22 4 0 7 1 11 3l23 11c12 7 22 22 22 36l0 57c0 14-10 29-22 36z m3-93c0-7-6-16-12-19l-22-11c-2-1-2-1-3-1 0 0-1 1-1 3l0 113c0 2 0 3 1 3 0 0 1 0 3-1l22-11c6-3 12-12 12-19z m-86 76l-38 0c-5 0-9-4-9-10 0-5 4-9 9-9l38 0c6 0 10 4 10 9 0 6-4 10-10 10z m0-38l-38 0c-5 0-9-4-9-9 0-6 4-10 9-10l38 0c6 0 10 4 10 10 0 5-4 9-10 9z m0-38l-38 0c-5 0-9-4-9-9 0-6 4-10 9-10l38 0c6 0 10 4 10 10 0 5-4 9-10 9z m456-161c-1 0-35 0-55-32-7-11-13-24-18-36-9-21-19-45-32-45-23 0-33 11-36 20 32 3 36 20 36 28 10 63 92 183 93 184 1 2 2 4 2 6 12 19 19 42 19 66 0 68-55 123-123 123-16 0-32-3-46-9l-136-33c-26-5-46-28-46-54l0-57c0-25 20-49 45-54l133-31 2 0c2-1 3-1 5-2-30-40-33-109-33-131 0-12 9-32 29-37 4-17 18-39 56-39 26 0 37 29 49 56 4 12 10 25 16 33 16 24 39 25 40 25 5 0 9 4 9 9 0 6-4 10-9 10z m-293 126c-17 3-30 19-30 35l0 57c0 16 13 32 30 35l133 31 5 1 1 0c13 6 26 9 40 9 58 0 104-47 104-104 0-58-46-105-104-105-14 0-28 3-41 9z m122-183c0 44 9 100 34 125 8-1 15-2 23-2 20 0 39 5 56 14-26-43-59-104-65-145 0 0 0-1 0-1 0-5-8-10-28-10-14 0-20 14-20 19z"/>
<glyph glyph-name="gym" unicode="&#93;" d="M72 276c-10 10-29 10-40 0l-17-17c-6-6-8-12-8-20 0-8 2-15 8-20l18-18c-3-1-6-3-7-6l-11-10c-6-6-8-12-8-20 0-8 2-15 8-20l61-61-29-28c-3-4-3-10 0-13 2-2 5-3 7-3 3 0 5 1 7 3l28 28 62-62c5-5 12-8 20-8 7 0 15 3 20 8l10 11c2 2 4 5 6 7l3-2c5-6 12-9 19-9 8 0 16 3 20 9l17 17c12 11 12 29 0 40z m115-244l-11-10c-3-4-10-4-14 0l-67 68-68 68c-1 2-2 4-2 7 0 3 1 5 2 7l11 9c2 2 4 3 7 3 2 0 4-1 6-3l136-135c2-2 3-4 3-7 0-2-1-5-3-7z m66 23l-17-17c-4-4-9-4-13 0l-196 194c-1 2-2 4-2 7 0 3 1 5 2 7l18 17c2 2 4 2 7 2 3 0 5 0 7-2l194-195c4-4 4-9 0-13z m250 266c12 12 12 30 0 40l-60 61 29 27c4 4 4 10 0 14-4 3-9 3-13 0l-30-27-62 62c-10 10-29 10-40 0l-10-11c-2-2-4-4-6-7l-17 18c-11 10-29 10-40 0l-17-17c-11-12-11-30 0-40l194-194c6-6 13-9 20-9 8 0 15 3 20 9l17 17c6 5 9 12 9 19 0 8-3 16-9 20l-3 3c3 1 6 3 8 6z m-28-45l-17-17c-4-4-10-4-13 0l-196 194c-3 4-3 10 0 13l17 18c2 1 4 2 7 2 3 0 5-1 7-2l194-195c2-2 3-4 3-6 1-2 0-5-2-7z m14 60l-10-11c-4-4-10-4-13 0l-135 136c-2 2-3 4-3 6 0 3 1 5 3 7l10 11c2 1 4 2 7 2 3 0 5-1 7-2l135-136c3-4 3-11-1-13z m-170-10l-133-133c-4-3-4-9 0-13 2-2 5-3 6-3 3 0 5 1 7 3l133 133c4 4 4 9 0 13-4 4-10 4-13 0z"/>
</font>
</defs>
</svg>
